Сегодня идет свободное скачивание без начисления Download

Две недлинных сказки (Елена Касавина) [2015, Россия, мультфильм, WEBRip-AVC] из цикла "Гора Самоцветов"

Ответить на тему
 
Автор
Сообщение

Omen ®

Стаж: 6 лет 2 месяца

Сообщений: 184294

Торрент-статистика

Пост 09-Янв-2017 01:00

[Цитировать]

Две недлинных сказки
Страна: Россия
Жанр: мультфильм
Продолжительность: 00:14:57
Год выпуска: 2015
Режиссёр: Елена Касавина
Текст читает: Николай Рушковский
Описание: Две еврейских сказки.
Первая - про двух братьев и пять снопов пшеницы.
Вторая - про юного царя Соломона, пожилую вдову и червя по имени Шамир.
Доп. информация: Диплом в номинации "Анимация" - Кинофестиваль "Отцы и дети" (2016)
Качество: WEBRip-AVC
Формат: MP4
Видео: 1453 kbps, 1280х720 (16:9), 25.000 fps, AVC (High@L4.1)
Аудио: 126 kbps, 44.1 kHz, 2 channels, AAC (LC)
Субтитры: отсутствуют

Подробные технические данные

GeneralComplete name : Две недлинных сказки (2015).mp4Format : MPEG-4Format profile : Base Media / Version 2Codec ID : mp42File size : 169 MiBDuration : 14mn 57sOverall bit rate mode : VariableOverall bit rate : 1 582 KbpsEncoded date : UTC 2016-04-19 04:04:43Tagged date : UTC 2016-04-19 04:04:43gsst : 0gstd : 897056
VideoID : 1Format : AVCFormat/Info : Advanced Video CodecFormat profile : Main@L3.1Format settings, CABAC : YesFormat settings, ReFrames : 3 framesCodec ID : avc1Codec ID/Info : Advanced Video CodingDuration : 14mn 57sBit rate : 1 453 KbpsWidth : 1 280 pixelsHeight : 720 pixelsDisplay aspect ratio : 16:9Frame rate mode : ConstantFrame rate : 25.000 fpsColor space : YUVChroma subsampling : 4:2:0Bit depth : 8 bitsScan type : ProgressiveBits/(Pixel*Frame) : 0.063Stream size : 155 MiB (92%)Title : ISO Media file produced by Google Inc.Encoded date : UTC 2016-04-19 04:04:43Tagged date : UTC 2016-04-19 04:04:43Color primaries : BT.709Transfer characteristics : BT.709Matrix coefficients : BT.709
AudioID : 2Format : AACFormat/Info : Advanced Audio CodecFormat profile : LCCodec ID : 40Duration : 14mn 57sBit rate mode : VariableBit rate : 126 KbpsChannel(s) : 2 channelsChannel positions : Front: L RSampling rate : 44.1 KHzCompression mode : LossyStream size : 13.4 MiB (8%)Title : ISO Media file produced by Google Inc.Encoded date : UTC 2016-04-19 04:04:43Tagged date : UTC 2016-04-19 04:04:43

Скриншоты

Вне форума [Профиль] [ЛС]
Показать сообщения:    
Ответить на тему

Текущее время: Сегодня 10:36

Часовой пояс: GMT + 3



Вы не можете начинать темы
Вы не можете отвечать на сообщения
Вы не можете редактировать свои сообщения
Вы не можете удалять свои сообщения
Вы не можете голосовать в опросах
Вы не можете прикреплять файлы к сообщениям
Вы не можете скачивать файлы