Сегодня идет свободное скачивание без начисления Download

Белы медведи (Роза Гиматдинова, Татьяна Киселёва) [2015, Россия, мультфильм, экранизация, WEBRip-AVC]

Ответить на тему
 
Автор
Сообщение

Omen ®

Стаж: 6 лет 2 месяца

Сообщений: 184294

Торрент-статистика

Пост 07-Янв-2017 01:00

[Цитировать]

Белы медведи
Страна: Россия
Жанр: мультфильм, экранизация
Продолжительность: 00:13:30
Год выпуска: 2015
Режиссёры: Роза Гиматдинова, Татьяна Киселёва
Композитор: Татьяна Шатковская-Айзенберг
Текст читает: Юрий Бережнев
Описание: По мотивам сказки Степана Писахова.
Поморская сказка-небылица про то как мужик на острове белых медведей ловил.
Качество: WEBRip-AVC
Формат: MP4
Видео: 1574 kbps, 1280х720 (16:9), 25.000 fps, AVC (High@L3.1)
Аудио: 126 kbps, 44.1 kHz, 2 channels, AAC (LC)
Субтитры: отсутствуют

Подробные технические данные

GeneralComplete name : Белы медведи (2015).mp4Format : MPEG-4Format profile : Base Media / Version 2Codec ID : mp42File size : 164 MiBDuration : 13mn 30sOverall bit rate mode : VariableOverall bit rate : 1 703 KbpsEncoded date : UTC 2016-05-26 09:20:19Tagged date : UTC 2016-05-26 09:20:19gsst : 0gstd : 810167
VideoID : 1Format : AVCFormat/Info : Advanced Video CodecFormat profile : Main@L3.1Format settings, CABAC : YesFormat settings, ReFrames : 3 framesCodec ID : avc1Codec ID/Info : Advanced Video CodingDuration : 13mn 30sBit rate : 1 574 KbpsWidth : 1 280 pixelsHeight : 720 pixelsDisplay aspect ratio : 16:9Frame rate mode : ConstantFrame rate : 25.000 fpsColor space : YUVChroma subsampling : 4:2:0Bit depth : 8 bitsScan type : ProgressiveBits/(Pixel*Frame) : 0.068Stream size : 152 MiB (92%)Title : ISO Media file produced by Google Inc.Encoded date : UTC 2016-05-26 09:20:19Tagged date : UTC 2016-05-26 09:20:19Color primaries : BT.709Transfer characteristics : BT.709Matrix coefficients : BT.709
AudioID : 2Format : AACFormat/Info : Advanced Audio CodecFormat profile : LCCodec ID : 40Duration : 13mn 30sBit rate mode : VariableBit rate : 126 KbpsChannel(s) : 2 channelsChannel positions : Front: L RSampling rate : 44.1 KHzCompression mode : LossyStream size : 12.1 MiB (7%)Title : ISO Media file produced by Google Inc.Encoded date : UTC 2016-05-26 09:20:19Tagged date : UTC 2016-05-26 09:20:19

Скриншоты

Вне форума [Профиль] [ЛС]
Показать сообщения:    
Ответить на тему

Текущее время: Сегодня 11:14

Часовой пояс: GMT + 3



Вы не можете начинать темы
Вы не можете отвечать на сообщения
Вы не можете редактировать свои сообщения
Вы не можете удалять свои сообщения
Вы не можете голосовать в опросах
Вы не можете прикреплять файлы к сообщениям
Вы не можете скачивать файлы