Сегодня идет свободное скачивание без начисления Download

Мышкины истории (Борис Коршунов) [2013, Россия, мультфильм, WEBRip-AVC]

Ответить на тему
 
Автор
Сообщение

Omen ®

Стаж: 6 лет 2 месяца

Сообщений: 184294

Торрент-статистика

Пост 02-Янв-2017 01:00

[Цитировать]

Мышкины истории
Страна: Россия
Жанр: мультфильм
Продолжительность: 00:11:00
Год выпуска: 2013
Режиссёр: Борис Коршунов
Роли озвучивали: Василий Ливанов, Татьяна Кожевникова
Описание: Две зимние сказки: "Дед Ледяная Борода" и "Бабушкина малина".
Качество: WEBRip-AVC
Формат: MP4
Видео: 1886 kbps, 1280х720 (16:9), 25.000 fps, AVC (Main@L3.1)
Аудио: 126 kbps, 44.1 kHz, 2 channels, AAC (LC)
Субтитры: отсутствуют

Подробные технические данные

GeneralComplete name : Мышкины истории (2013).mp4Format : MPEG-4Format profile : Base Media / Version 2Codec ID : mp42File size : 159 MiBDuration : 11mn 0sOverall bit rate mode : VariableOverall bit rate : 2 015 KbpsEncoded date : UTC 2016-08-18 11:55:04Tagged date : UTC 2016-08-18 11:55:04gsst : 0gstd : 660166
VideoID : 1Format : AVCFormat/Info : Advanced Video CodecFormat profile : Main@L3.1Format settings, CABAC : YesFormat settings, ReFrames : 3 framesCodec ID : avc1Codec ID/Info : Advanced Video CodingDuration : 11mn 0sBit rate : 1 886 KbpsWidth : 1 280 pixelsHeight : 720 pixelsDisplay aspect ratio : 16:9Frame rate mode : ConstantFrame rate : 25.000 fpsColor space : YUVChroma subsampling : 4:2:0Bit depth : 8 bitsScan type : ProgressiveBits/(Pixel*Frame) : 0.082Stream size : 148 MiB (94%)Title : ISO Media file produced by Google Inc.Encoded date : UTC 2016-08-18 11:55:04Tagged date : UTC 2016-08-18 11:55:04
AudioID : 2Format : AACFormat/Info : Advanced Audio CodecFormat profile : LCCodec ID : 40Duration : 11mn 0sBit rate mode : VariableBit rate : 126 KbpsChannel(s) : 2 channelsChannel positions : Front: L RSampling rate : 44.1 KHzCompression mode : LossyStream size : 9.88 MiB (6%)Title : ISO Media file produced by Google Inc.Encoded date : UTC 2016-08-18 11:55:04Tagged date : UTC 2016-08-18 11:55:04

Скриншоты

Вне форума [Профиль] [ЛС]
Показать сообщения:    
Ответить на тему

Текущее время: Сегодня 16:17

Часовой пояс: GMT + 3



Вы не можете начинать темы
Вы не можете отвечать на сообщения
Вы не можете редактировать свои сообщения
Вы не можете удалять свои сообщения
Вы не можете голосовать в опросах
Вы не можете прикреплять файлы к сообщениям
Вы не можете скачивать файлы