Сегодня идет свободное скачивание без начисления Download

В стране альхоков (Евгений Бугаёв) [1994, Украина, мультфильм, приключения, VHSRip]

Ответить на тему
 
Автор
Сообщение

Omen ®

Стаж: 6 лет 2 месяца

Сообщений: 184294

Торрент-статистика

Пост 18-Дек-2016 01:00

[Цитировать]

В СТРАНЕ АЛЬХОКОВ
Страна: Украина
Год выпуска: 1994
Жанр: мультфильм, приключения
Режиссёр: Евгений Бугаёв
Композиторы: Борис Бортник, Эдуард Цисельский
Роли озвучивали: Давид Макаревский, Александр Краснопольский, Наталья Батрак, Фауст Миндлин, Ирина Токарчук, Елена Телегина, Юлия Скарга, Аурика Рейтер
Качество видео: VHSRip
Формат видео: AVI
Субтитры: отсутствуют
Описание:
Трёхсерийный приключенческий мультфильм о неизвестной земле где-то в районе Северного Полюса. В результате магнитной аномалии там сохраняется тропический климат.
На поиски этой земли отправляется экспедиция, в составе которой профессор Менахем Гейзерман, пилот Олаф Йенсен, инженер Акира Мицуи и школьник Джек Джеферсон. Их самолёт терпит крушение, и путешественники оказываются на этой самой земле, где не только растут тропические джунгли, но и до сих пор сохранились доисторические животные. Кроме того там живут люди - племя альхоков...

Информация по каждой серии:
В стране альхоков. Фильм I
Продолжительность: 00:24:43
Видео: 1247 kbps, 560х464 (1.207), 25.000 fps, MPEG-4 Visual (XviD)
Аудио: 192 kbps, 44.1 kHz, 2 channels, MPEG Audio (MP3)

MediaInfo

General
Complete name : В стране альхоков 1.avi
Format : AVI
Format/Info : Audio Video Interleave
File size : 256 MiB
Duration : 24mn 43s
Overall bit rate : 1 449 Kbps
Writing library : VirtualDub build 35491/release
Video
ID : 0
Format : MPEG-4 Visual
Format profile : Advanced Simple@L4
Format settings, BVOP : 2
Format settings, QPel : No
Format settings, GMC : No warppoints
Format settings, Matrix : Default (H.263)
Codec ID : XVID
Codec ID/Hint : XviD
Duration : 24mn 43s
Bit rate : 1 247 Kbps
Width : 560 pixels
Height : 464 pixels
Display aspect ratio : 1.207
Frame rate : 25.000 fps
Color space : YUV
Chroma subsampling : 4:2:0
Bit depth : 8 bits
Scan type : Progressive
Compression mode : Lossy
Bits/(Pixel*Frame) : 0.192
Stream size : 221 MiB (86%)
Writing library : XviD 64
Audio
ID : 1
Format : MPEG Audio
Format version : Version 1
Format profile : Layer 3
Mode : Joint stereo
Codec ID : 55
Codec ID/Hint : MP3
Duration : 24mn 43s
Bit rate mode : Constant
Bit rate : 192 Kbps
Channel(s) : 2 channels
Sampling rate : 44.1 KHz
Compression mode : Lossy
Stream size : 33.9 MiB (13%)
Alignment : Split accross interleaves
Interleave, duration : 40 ms (1.00 video frame)
Interleave, preload duration : 500 ms

Скриншоты

В стране альхоков. Фильм II
Продолжительность: 00:26:19
Видео: 1245 kbps, 560х464 (1.207), 25.000 fps, MPEG-4 Visual (XviD)
Аудио: 192 kbps, 44.1 kHz, 2 channels, MPEG Audio (MP3)

MediaInfo

General
Complete name : В стране альхоков 2.avi
Format : AVI
Format/Info : Audio Video Interleave
File size : 272 MiB
Duration : 26mn 19s
Overall bit rate : 1 447 Kbps
Writing application : VirtualDubMod 1.5.10.2 (build 2540/release)
Writing library : VirtualDubMod build 2540/release
Video
ID : 0
Format : MPEG-4 Visual
Format profile : Advanced Simple@L4
Format settings, BVOP : 2
Format settings, QPel : No
Format settings, GMC : No warppoints
Format settings, Matrix : Default (H.263)
Codec ID : XVID
Codec ID/Hint : XviD
Duration : 26mn 19s
Bit rate : 1 245 Kbps
Width : 560 pixels
Height : 464 pixels
Display aspect ratio : 1.207
Frame rate : 25.000 fps
Color space : YUV
Chroma subsampling : 4:2:0
Bit depth : 8 bits
Scan type : Progressive
Compression mode : Lossy
Bits/(Pixel*Frame) : 0.192
Stream size : 234 MiB (86%)
Writing library : XviD 64
Audio
ID : 1
Format : MPEG Audio
Format version : Version 1
Format profile : Layer 3
Codec ID : 55
Codec ID/Hint : MP3
Duration : 26mn 19s
Bit rate mode : Constant
Bit rate : 192 Kbps
Channel(s) : 2 channels
Sampling rate : 44.1 KHz
Compression mode : Lossy
Stream size : 36.2 MiB (13%)
Alignment : Split accross interleaves
Interleave, duration : 40 ms (1.00 video frame)
Interleave, preload duration : 500 ms

Скриншоты

В стране альхоков. Фильм III
Продолжительность: 00:25:08
Видео: 1246 kbps, 560х464 (1.207), 25.000 fps, MPEG-4 Visual (XviD)
Аудио: 192 kbps, 44.1 kHz, 2 channels, MPEG Audio (MP3)

MediaInfo

General
Complete name : В стране альхоков 3.avi
Format : AVI
Format/Info : Audio Video Interleave
File size : 260 MiB
Duration : 25mn 8s
Overall bit rate : 1 447 Kbps
Writing library : VirtualDub build 35491/release
Video
ID : 0
Format : MPEG-4 Visual
Format profile : Advanced Simple@L4
Format settings, BVOP : 2
Format settings, QPel : No
Format settings, GMC : No warppoints
Format settings, Matrix : Default (H.263)
Codec ID : XVID
Codec ID/Hint : XviD
Duration : 25mn 8s
Bit rate : 1 246 Kbps
Width : 560 pixels
Height : 464 pixels
Display aspect ratio : 1.207
Frame rate : 25.000 fps
Color space : YUV
Chroma subsampling : 4:2:0
Bit depth : 8 bits
Scan type : Progressive
Compression mode : Lossy
Bits/(Pixel*Frame) : 0.192
Stream size : 224 MiB (86%)
Writing library : XviD 64
Audio
ID : 1
Format : MPEG Audio
Format version : Version 1
Format profile : Layer 3
Mode : Joint stereo
Codec ID : 55
Codec ID/Hint : MP3
Duration : 25mn 8s
Bit rate mode : Constant
Bit rate : 192 Kbps
Channel(s) : 2 channels
Sampling rate : 44.1 KHz
Compression mode : Lossy
Stream size : 34.5 MiB (13%)
Alignment : Split accross interleaves
Interleave, duration : 40 ms (1.00 video frame)
Interleave, preload duration : 500 ms

Скриншоты

Вне форума [Профиль] [ЛС]
Показать сообщения:    
Ответить на тему

Текущее время: Сегодня 10:45

Часовой пояс: GMT + 3



Вы не можете начинать темы
Вы не можете отвечать на сообщения
Вы не можете редактировать свои сообщения
Вы не можете удалять свои сообщения
Вы не можете голосовать в опросах
Вы не можете прикреплять файлы к сообщениям
Вы не можете скачивать файлы