Сегодня идет свободное скачивание без начисления Download

Фантомагия. Любовь неземная (Геннадий Тищенко) [1997, Россия, мультфильм для взрослых, WEBRip]

Ответить на тему
 
Автор
Сообщение

Omen ®

Стаж: 6 лет 2 месяца

Сообщений: 184294

Торрент-статистика

Пост 10-Дек-2016 01:01

[Цитировать]

Фантомагия. Любовь неземная
Страна: Россия
Жанр: мультфильм для взрослых
Продолжительность: 00:12:54
Год выпуска: 1997
Режиссёр: Геннадий Тищенко
Роли озвучивали: Армен Джигарханян, Лариса Москвичёва, Юрий Филоненко, Лариса Брохман
Описание: Первая серия несостоявшегося мультсериала (вроде бы снималась ещё и вторая). Сказочно-фантастическая пародия из "лихих 90-ых". Сумбурный результат амбиций продюсера поп-певицы Ларисы Москвичёвой и фотомодели Инги Дроздовой.
Качество: WEBRip
Формат: AVI
Видео: 1595 kbps, 704х528 (4:3), 25.000 fps, MPEG-4 Visual (XviD)
Аудио: 192 kbps, 44.1 kHz, 2 channels, MPEG Audio (MP3)
Субтитры: отсутствуют

Подробные технические данные

GeneralComplete name : Фантомагия. Любовь неземная. 1997.aviFormat : AVIFormat/Info : Audio Video InterleaveFile size : 166 MiBDuration : 12mn 54sOverall bit rate : 1 799 KbpsWriting application : MEncoder SVN-r30881(20100311-gcc4.3.3)Writing library : MPlayer
VideoID : 0Format : MPEG-4 VisualFormat profile : Advanced Simple@L5Format settings, BVOP : 2Format settings, QPel : NoFormat settings, GMC : No warppointsFormat settings, Matrix : Default (H.263)Codec ID : XVIDCodec ID/Hint : XviDDuration : 12mn 54sBit rate : 1 595 KbpsWidth : 704 pixelsHeight : 528 pixelsDisplay aspect ratio : 4:3Frame rate : 25.000 fpsColor space : YUVChroma subsampling : 4:2:0Bit depth : 8 bitsScan type : ProgressiveCompression mode : LossyBits/(Pixel*Frame) : 0.172Stream size : 147 MiB (89%)Writing library : XviD 1.2.1 (UTC 2008-12-04)
AudioID : 1Format : MPEG AudioFormat version : Version 1Format profile : Layer 3Mode : Joint stereoMode extension : MS StereoCodec ID : 55Codec ID/Hint : MP3Duration : 12mn 54sBit rate mode : ConstantBit rate : 192 KbpsChannel(s) : 2 channelsSampling rate : 44.1 KHzCompression mode : LossyDelay relative to video : 80msStream size : 17.7 MiB (11%)Alignment : Aligned on interleavesInterleave, duration : 26 ms (0.65 video frame)Interleave, preload duration : 522 msWriting library : LAME3.98

Скриншоты

Вне форума [Профиль] [ЛС]
Показать сообщения:    
Ответить на тему

Текущее время: Сегодня 15:36

Часовой пояс: GMT + 3



Вы не можете начинать темы
Вы не можете отвечать на сообщения
Вы не можете редактировать свои сообщения
Вы не можете удалять свои сообщения
Вы не можете голосовать в опросах
Вы не можете прикреплять файлы к сообщениям
Вы не можете скачивать файлы