Сегодня идет свободное скачивание без начисления Download

Как зима в лес пришла (Михаил Шаров) [1973, СССР, кукольный фильм, WEBRip]

Ответить на тему
 
Автор
Сообщение

Omen ®

Стаж: 6 лет 2 месяца

Сообщений: 184294

Торрент-статистика

Пост 04-Дек-2016 01:00

[Цитировать]

Как зима в лес пришла
Страна: СССР
Жанр: кукольный фильм
Продолжительность: 00:15:03
Год выпуска: 1973
Режиссёр: Михаил Шаров
Описание: По мотивам сказок Станислава Мальцева.
Зайка Петя и его друзья радуются приходу зимы. А лиска Лариска подговаривает волка Вову и кота Ваську отнять у зайки его новую белую шубку.
Качество: WEBRip
Формат: AVI
Видео: 1890 kbps, 624х464 (4:3), 25.000 fps, MPEG-4 Visual (XviD)
Аудио: 128 kbps, 44.1 kHz, 2 channels, MPEG Audio (MP3)
Субтитры: отсутствуют

Подробные технические данные

GeneralComplete name : Как зима в лес пришла.aviFormat : AVIFormat/Info : Audio Video InterleaveFile size : 219 MiBDuration : 15mn 3sOverall bit rate : 2 028 KbpsWriting library : VirtualDub build 35491/release
VideoID : 0Format : MPEG-4 VisualFormat profile : Advanced Simple@L5Format settings, BVOP : 2Format settings, QPel : NoFormat settings, GMC : No warppointsFormat settings, Matrix : Default (H.263)Codec ID : XVIDCodec ID/Hint : XviDDuration : 15mn 3sBit rate : 1 890 KbpsWidth : 624 pixelsHeight : 464 pixelsDisplay aspect ratio : 4:3Frame rate : 25.000 fpsColor space : YUVChroma subsampling : 4:2:0Bit depth : 8 bitsScan type : ProgressiveCompression mode : LossyBits/(Pixel*Frame) : 0.261Stream size : 204 MiB (93%)Writing library : XviD 64
AudioID : 1Format : MPEG AudioFormat version : Version 1Format profile : Layer 3Mode : Joint stereoMode extension : MS StereoCodec ID : 55Codec ID/Hint : MP3Duration : 15mn 3sBit rate mode : ConstantBit rate : 128 KbpsChannel(s) : 2 channelsSampling rate : 44.1 KHzCompression mode : LossyStream size : 13.8 MiB (6%)Alignment : Split accross interleavesInterleave, duration : 40 ms (1.00 video frame)Interleave, preload duration : 501 ms

Скриншоты

Вне форума [Профиль] [ЛС]
Показать сообщения:    
Ответить на тему

Текущее время: Сегодня 10:36

Часовой пояс: GMT + 3



Вы не можете начинать темы
Вы не можете отвечать на сообщения
Вы не можете редактировать свои сообщения
Вы не можете удалять свои сообщения
Вы не можете голосовать в опросах
Вы не можете прикреплять файлы к сообщениям
Вы не можете скачивать файлы