Сегодня идет свободное скачивание без начисления Download

Чучело-мяучело (Инесса Ковалевская) [1982, CCCР, Рисованный мультфильм, WEBRip]

Ответить на тему
 
Автор
Сообщение

Omen ®

Стаж: 6 лет 2 месяца

Сообщений: 184294

Торрент-статистика

Пост 24-Ноя-2016 01:01

[Цитировать]

Чучело-мяучело
Страна: CCCР
Жанр: Рисованный мультфильм
Продолжительность: 00:09:15
Год выпуска: 1982
Русские субтитры: нет
Режиссёр: Инесса Ковалевская
Роли озвучивали: Елена Степаненко, Наталья Ченчик, Николай Граббе
Описание: Однажды солнечным летним утром в одном городе проснулся маленький чёрный котёнок, и захотелось котёнку поделиться своим чудесным настроением со всеми окружающими. Решил он спеть весёлую песню. Но так получилось, что все котёнка прогоняли. И все кричали котёнку обидное прозвище — Чучело-Мяучело….
Доп. информация: «Союзмультфильм»
Автор сценария: Владимир Алеников
Текст песен: Михаила Яснова
Художник-постановщик: Нина Юсупова
Композитор: Игорь Космачёв
Кинооператор: Светлана Кощеева
Качество: WEBRip
Формат: AVI
Видео: 640x480 (1.33:1), 25 fps, XviD 65 ~2102 kbps avg, 0.27 bit/pixel
Аудио: 48 kHz, AC3 Dolby Digital, 1/0 (C) ch, ~128.00 kbps avg
Субтитры: нет

Подробные технические данные

Format : AVIFormat/Info : Audio Video InterleaveFile size : 148 MiBDuration : 9mn 15sOverall bit rate : 2 240 KbpsWriting application : VirtualDubModRus 1.5.10.2 (build 2542/release)Copyright : Rutracker.ruComment : WEBRip by dvdss
VideoID : 0Format : MPEG-4 VisualFormat profile : Advanced Simple@L5Format settings, BVOP : 2Format settings, QPel : NoFormat settings, GMC : No warppointsFormat settings, Matrix : CustomCodec ID : XVIDCodec ID/Hint : XviDDuration : 9mn 15sBit rate : 2 102 KbpsWidth : 640 pixelsHeight : 480 pixelsDisplay aspect ratio : 5:4Original display aspect ratio : 4:3Frame rate : 25.000 fpsColor space : YUVChroma subsampling : 4:2:0Bit depth : 8 bitsScan type : ProgressiveCompression mode : LossyBits/(Pixel*Frame) : 0.274Stream size : 139 MiB (94%)Writing library : XviD 65
AudioID : 1Format : AC-3Format/Info : Audio Coding 3Mode extension : CM (complete main)Format settings, Endianness : BigCodec ID : 2000Duration : 9mn 15sBit rate mode : ConstantBit rate : 128 KbpsChannel(s) : 1 channelChannel positions : Front: CSampling rate : 48.0 KHzBit depth : 16 bitsCompression mode : LossyStream size : 8.47 MiB (6%)Alignment : Aligned on interleavesInterleave, duration : 40 ms (1.00 video frame)Interleave, preload duration : 512 ms

сравнение с DVDRip

Сравнение с [url=viewtopic.php?t=3317425]http:///*spam*//forum/viewtopic.php?t=3317425[/url]
Тут -- http://screenshotcomparison.com/comparison/191641/picture:1

интересные факты

• После выхода этого мультфильма само выражение «Чучело-Мяучело» стало крылатой фразой. Многие родители в шутку называли так своих детей, когда они вели себя не слишком хорошо и необходимо было их за что-то пожурить.
• Песни из этого мультфильма выпускались в 1980-е и в начале 1990-х годов в СССР на детских пластинках фирмой «Мелодия» и на аудиокассетах «Свема». В России в 1990-е годы выпускался на аудиокассетах и на компакт-дисках CD изданием Twic Lyrec (с 1995 года) в других сборниках песен из мультфильмов, а с 2000 года — на дисках MP3 разными фирмами.
• В 1990-е годы на аудиокассетах изданием Twic Lyrec была выпущена аудиосказка по одноимённому мультфильму с текстом Евгения Кондратьева.

Текст песенки котёнка

Чучело-Мяучело — Утро начинается
Утро начинается, начинается.
Город улыбается, улыбается.
Открываются окошки,
Выбегая на дорожки,
Громко хлопая в ладошки,
Запели звонко дети:
Раз, два, утро!
Три, четыре, пять!
Выходи играть!
Выходи играть!
Вместе с нами
Выходи играть!
Здравствуй, утро!
Город улыбается, улыбается.
Солнце поднимается, поднимается.
Мы на солнечных качелях
Прокатиться захотели,
Прямо в небо полетели-
Вперед, навстречу солнцу!
Раз, два, солнце!
Три, четыре, пять!
Выходи играть!
Выходи играть!
Вместе с нами
Выходи играть!
Здравствуй, солнце!
Солнце поднимается, поднимается.
Детство продолжается, продолжается.
Всюду радостные лица,
Вместе будем веселиться,
С целым миром подружиться
Поможет эта песня.
Раз, два, детство!
Три, четыре, пять!
Выходи играть!
Выходи играть!
Вместе с нами
Выходи играть!
Здравствуй, детство!

Скриншоты

Вне форума [Профиль] [ЛС]
Показать сообщения:    
Ответить на тему

Текущее время: Сегодня 14:53

Часовой пояс: GMT + 3



Вы не можете начинать темы
Вы не можете отвечать на сообщения
Вы не можете редактировать свои сообщения
Вы не можете удалять свои сообщения
Вы не можете голосовать в опросах
Вы не можете прикреплять файлы к сообщениям
Вы не можете скачивать файлы