Сегодня идет свободное скачивание без начисления Download

Кукушка (Михаил Горобчук) [2013, Россия, мультфильм, сказка, WEBRip-AVC]

Ответить на тему
 
Автор
Сообщение

Omen ®

Стаж: 6 лет 2 месяца

Сообщений: 184294

Торрент-статистика

Пост 20-Ноя-2016 01:00

[Цитировать]

Кукушка
Страна: Россия
Жанр: мультфильм, сказка
Продолжительность: 00:12:14
Год выпуска: 2013
Режиссёр: Михаил Горобчук
Текст читает: Алексей Погребной
Описание: По мотивам ненецкой сказки про одинокую женщину и трёх её нерадивых детей.
Качество: WEBRip-AVC
Формат: MP4
Видео: 1012 kbps, 1280х720 (16:9), 25.000 fps, AVC (High@L3.1)
Аудио: 192 kbps, 44.1 kHz, 2 channels, AAC (LC)
Субтитры: отсутствуют

Подробные технические данные

GeneralComplete name : Кукушка (2013).mp4Format : MPEG-4Format profile : Base Media / Version 2Codec ID : mp42File size : 100 MiBDuration : 12mn 14sOverall bit rate mode : VariableOverall bit rate : 1 142 KbpsEncoded date : UTC 2016-08-15 01:49:45Tagged date : UTC 2016-08-15 01:49:45gsst : 0gstd : 735074
VideoID : 1Format : AVCFormat/Info : Advanced Video CodecFormat profile : Main@L3.1Format settings, CABAC : YesFormat settings, ReFrames : 3 framesCodec ID : avc1Codec ID/Info : Advanced Video CodingDuration : 12mn 14sBit rate : 1 012 KbpsWidth : 1 280 pixelsHeight : 720 pixelsDisplay aspect ratio : 16:9Frame rate mode : ConstantFrame rate : 25.000 fpsColor space : YUVChroma subsampling : 4:2:0Bit depth : 8 bitsScan type : ProgressiveBits/(Pixel*Frame) : 0.044Stream size : 88.7 MiB (89%)Title : ISO Media file produced by Google Inc.Encoded date : UTC 2016-08-15 01:49:45Tagged date : UTC 2016-08-15 01:49:45Color primaries : BT.709Transfer characteristics : BT.709Matrix coefficients : BT.709
AudioID : 2Format : AACFormat/Info : Advanced Audio CodecFormat profile : LCCodec ID : 40Duration : 12mn 14sBit rate mode : VariableBit rate : 126 KbpsChannel(s) : 2 channelsChannel positions : Front: L RSampling rate : 44.1 KHzCompression mode : LossyStream size : 11.0 MiB (11%)Title : ISO Media file produced by Google Inc.Encoded date : UTC 2016-08-15 01:49:45Tagged date : UTC 2016-08-15 01:49:45

Скриншоты

Вне форума [Профиль] [ЛС]
Показать сообщения:    
Ответить на тему

Текущее время: Сегодня 15:14

Часовой пояс: GMT + 3



Вы не можете начинать темы
Вы не можете отвечать на сообщения
Вы не можете редактировать свои сообщения
Вы не можете удалять свои сообщения
Вы не можете голосовать в опросах
Вы не можете прикреплять файлы к сообщениям
Вы не можете скачивать файлы