Сегодня идет свободное скачивание без начисления Download

Мы не можем жить без космоса / We can\'t live without cosmos (Константин Бронзит) [2014, Россия, Рисованный мультфильм, HDRip]

Ответить на тему
 
Автор
Сообщение

Omen ®

Стаж: 6 лет 2 месяца

Сообщений: 184294

Торрент-статистика

Пост 20-Ноя-2016 01:00

[Цитировать]

Мы не можем жить без космоса / We can't live without cosmos
Страна: Россия
Жанр: Рисованный мультфильм
Продолжительность: 00:15:19
Год выпуска: 2014
Русские субтитры: нет
Режиссёр: Константин Бронзит
Описание: Двое мужчин — известны лишь их номера: 1203 и 1204, — которые дружат с детства, занимаются в центре подготовки космонавтов, выделяясь среди остальных своей выносливостью. № 1203 выбран для полета, в то время как его друг остается резервным космонавтом. Запуск заканчивается катастрофой, и № 1204 впадает в тяжелую депрессию, из-за чего его исключают из программы подготовки. Придя в его комнату, администрация обнаруживает лишь пустой скафандр и дыру в потолке: № 1204 символически воссоединился с погибшим....
Доп. информация: «Мельница»
Сценарий: А.Дударев
Компоузинг:К.Бронзит,А.Сальников
Супервизор: В.Голкунин
Композитор:В.Васенков
Фильм получивший более 20 фестивальных наград.
Качество: HDRip-AVC
Формат: MP4
Видео: 1280x720 (16:9), 24 fps, x264 ~ 2500 kbps avg, 0.11 bit/pixel
Аудио: 48.0 kHz, AAC, 2 ch, ~160.00 kbps avg
Субтитры: нет

Подробные технические данные

Format : MPEG-4Format profile : Base Media / Version 2Codec ID : mp42File size : 291 MiBDuration : 15mn 19sOverall bit rate mode : VariableOverall bit rate : 2 652 KbpsEncoded date : UTC 2014-09-29 22:28:45Tagged date : UTC 2014-09-29 22:28:45
VideoID : 1Format : AVCFormat/Info : Advanced Video CodecFormat profile : High@L3.1Format settings, CABAC : YesFormat settings, ReFrames : 4 framesCodec ID : avc1Codec ID/Info : Advanced Video CodingDuration : 15mn 18sBit rate : 2 500 KbpsWidth : 1 280 pixelsHeight : 720 pixelsDisplay aspect ratio : 16:9Frame rate mode : ConstantFrame rate : 24.000 fpsColor space : YUVChroma subsampling : 4:2:0Bit depth : 8 bitsScan type : ProgressiveBits/(Pixel*Frame) : 0.113Stream size : 273 MiB (94%)Writing library : x264 core 142 r2453 ea0ca51Encoding settings : cabac=1 / ref=3 / deblock=1:0:0 / analyse=0x3:0x113 / me=hex / subme=7 / psy=1 / psy_rd=1.00:0.00 / mixed_ref=1 / me_range=16 / chroma_me=1 / trellis=1 / 8x8dct=1 / cqm=0 / deadzone=21,11 / fast_pskip=1 / chroma_qp_offset=-2 / threads=48 / lookahead_threads=5 / sliced_threads=0 / nr=0 / decimate=1 / interlaced=0 / bluray_compat=0 / stitchable=1 / constrained_intra=0 / bframes=3 / b_pyramid=2 / b_adapt=1 / b_bias=0 / direct=1 / weightb=1 / open_gop=0 / weightp=2 / keyint=72 / keyint_min=24 / scenecut=40 / intra_refresh=0 / rc_lookahead=40 / rc=2pass / mbtree=1 / bitrate=2500 / ratetol=1.0 / qcomp=0.60 / qpmin=5 / qpmax=69 / qpstep=4 / cplxblur=20.0 / qblur=0.5 / vbv_maxrate=2750 / vbv_bufsize=7500 / nal_hrd=none / filler=0 / ip_ratio=1.40 / aq=1:1.00Encoded date : UTC 2014-09-29 22:28:45Tagged date : UTC 2014-09-29 22:28:45Color primaries : BT.709Transfer characteristics : BT.709Matrix coefficients : BT.709
AudioID : 2Format : AACFormat/Info : Advanced Audio CodecFormat profile : LCCodec ID : 40Duration : 15mn 19sBit rate mode : VariableBit rate : 160 KbpsChannel(s) : 2 channelsChannel positions : Front: L RSampling rate : 48.0 KHzCompression mode : LossyDelay relative to video : 83msStream size : 17.5 MiB (6%)Encoded date : UTC 2014-09-29 22:28:45Tagged date : UTC 2014-09-29 22:28:45

сравнение c avi (WEBRip)

Сравнение с [url=viewtopic.php?t=5024077]http:///*spam*//forum/viewtopic.php?t=5024077[/url]
Тут -- http://screenshotcomparison.com/comparison/191083/picture:0

интересные факты

- Бюджет мультфильма составил 11,7 млн рублей, из которых 4,8 млн рублей было выделено Министерством Культуры РФ
- В 2016 году мультфильм был номинирован на премию «Оскар» в категории лучший анимационный короткометражный фильм, но уступил чилийскому мультфильму «Медвежья история»
- Фильм получивший более 20 фестивальных наград по всему миру.
- Фильм заслужил высокие отзывы критиков: Лариса Малюкова назвала его среди лучших мультфильмов года, отметив «сдержанный и ясный дизайн», психологическую достоверность отношений и «растворённый в поэзии и метафоре гротеск». Наталия Григорьева обращает внимание на смену комического начала эпизодами с «напряженной, потом отчаянной» интонацией и на «лаконичную и чрезвычайно приятную глазу технику»
- Сразу несколько критиков (Антон Долин, Наталия Григорьева) провели параллели между мультфильмом Бронзита и фильмом Кристофера Нолана «Интерстеллар». По словам Долина, герои обеих картин «теряют представление о любой привычной нам системе координат»

Скриншоты

Вне форума [Профиль] [ЛС]
Показать сообщения:    
Ответить на тему

Текущее время: Сегодня 15:02

Часовой пояс: GMT + 3



Вы не можете начинать темы
Вы не можете отвечать на сообщения
Вы не можете редактировать свои сообщения
Вы не можете удалять свои сообщения
Вы не можете голосовать в опросах
Вы не можете прикреплять файлы к сообщениям
Вы не можете скачивать файлы