Сегодня идет свободное скачивание без начисления Download

Волшебное зеркало (И. Молдабеков, Г. Бекшиев) [1990, СССР, мультфильм, TVRip]

Ответить на тему
 
Автор
Сообщение

Omen ®

Стаж: 6 лет 2 месяца

Сообщений: 184294

Торрент-статистика

Пост 19-Ноя-2016 01:00

[Цитировать]

Волшебное зеркало
Страна: СССР (Казахская республика)
Жанр: мультфильм
Продолжительность: 00:06:46
Год выпуска: 1990
Перевод: не требуется
Русские субтитры: нет
Режиссёры: И. Молдабеков, Г. Бекшиев
Описание: Во время народных гуляний мужчины соревнуются за обладание золотым руном, но тут великан-дэв похищает руно при помощи волшебного зеркала. Всадники устремляются к пещере дэва. Придётся незадачливому похитителю принять бой!
Доп. информация: У рипа в начале отсутствуют несколько секунд с названием мультфильма.
Качество: TVRip
Формат: AVI
Видео: 999 kbps, 656х480 (4:3), 25.000 fps, MPEG-4 Visual (XviD)
Аудио: 128 kbps, 44.1 kHz, 2 channels, MPEG Audio (MP3)
Субтитры: отсутствуют

Подробные технические данные

GeneralComplete name : Волшебное зеркало. 1990.aviFormat : AVIFormat/Info : Audio Video InterleaveFile size : 55.1 MiBDuration : 6mn 46sOverall bit rate : 1 137 KbpsWriting application : VirtualDubMod 1.5.10.2 (build 2540/release)Writing library : VirtualDubMod build 2540/release
VideoID : 0Format : MPEG-4 VisualFormat profile : Advanced Simple@L3Format settings, BVOP : 2Format settings, QPel : NoFormat settings, GMC : No warppointsFormat settings, Matrix : Default (H.263)Codec ID : XVIDCodec ID/Hint : XviDDuration : 6mn 46sBit rate : 999 KbpsWidth : 656 pixelsHeight : 480 pixelsDisplay aspect ratio : 4:3Frame rate : 25.000 fpsColor space : YUVChroma subsampling : 4:2:0Bit depth : 8 bitsScan type : ProgressiveCompression mode : LossyBits/(Pixel*Frame) : 0.127Stream size : 48.4 MiB (88%)Writing library : XviD 64
AudioID : 1Format : MPEG AudioFormat version : Version 1Format profile : Layer 3Codec ID : 55Codec ID/Hint : MP3Duration : 6mn 46sBit rate mode : ConstantBit rate : 128 KbpsChannel(s) : 2 channelsSampling rate : 44.1 KHzCompression mode : LossyStream size : 6.20 MiB (11%)Alignment : Split accross interleavesInterleave, duration : 40 ms (1.00 video frame)Interleave, preload duration : 500 ms

Скриншоты

Вне форума [Профиль] [ЛС]
Показать сообщения:    
Ответить на тему

Текущее время: Сегодня 10:52

Часовой пояс: GMT + 3



Вы не можете начинать темы
Вы не можете отвечать на сообщения
Вы не можете редактировать свои сообщения
Вы не можете удалять свои сообщения
Вы не можете голосовать в опросах
Вы не можете прикреплять файлы к сообщениям
Вы не можете скачивать файлы