Сегодня идет свободное скачивание без начисления Download

Михаил Задорнов. Самые острые вырезанные моменты из концертов. Лучшее (2016) WEBRip

Ответить на тему
 
Автор
Сообщение

XP1971 ®

Пол:

Стаж: 6 лет 1 месяц

Сообщений: 9345

Торрент-статистика

Пост 12-Сен-2016 10:57

[Цитировать]

Михаил Задорнов. Самые острые вырезанные моменты из концертов. Лучшее (2016) WEBRip - Телекомпания: РЕН
Жанр: Юмористический концерт, сатира
Режиссер: Михаил Задорнов
Описание:
Эти шутки и курьезные моменты были вырезаны из телевизионных версий выступлений Михаила Задорнова. Но вы, уважаемые зрители, можете сейчас увидеть Самые острые вырезанные моменты из концертов Задорнова.
Релиз от:
Продолжительность: ~ 00:42:13
Качество видео: WEBRip
Субтитры: Отсутствуют
Видео: MPEG4, XviD, 704x400 (16:9), 25.000 fps, 1 699 Kbps (0.241 bit/pixel)
Аудио: MP3, 44.1 KHz, 2 ch, 128 Kbps, CBR

Mediainfo:

Код:
Общее
Полное имя                               : D:\[1]\Задорнов\Михаил Задорнов. Самые острые вырезанные моменты из концертов. Лучшее (2016).avi
Формат                                   : AVI
Формат/Информация                        : Audio Video Interleave
Размер файла                             : 555 Мбайт
Продолжительность                        : 42 м.
Общий поток                              : 1837 Кбит/сек
Программа кодирования                    : VirtualDubMod 1.5.10.2 (build 2540/release)
Библиотека кодирования                   : VirtualDubMod build 2540/release
Видео
Идентификатор                            : 0
Формат                                   : MPEG-4 Visual
Профиль формата                          : Advanced Simple@L5
Параметр BVOP формата                    : 1
Параметр QPel формата                    : Нет
Параметр GMC формата                     : Без точки перехода
Параметр матрицы формата                 : Default (H.263)
Идентификатор кодека                     : XVID
Идентификатор кодека/Подсказка           : XviD
Продолжительность                        : 42 м.
Битрейт                                  : 1699 Кбит/сек
Ширина                                   : 704 пикселя
Высота                                   : 400 пикселей
Соотношение сторон                       : 16:9
Частота кадров                           : 25,000 кадров/сек
Цветовое пространство                    : YUV
Субдискретизация насыщенности            : 4:2:0
Битовая глубина                          : 8 бит
Тип развёртки                            : Прогрессивная
Метод сжатия                             : С потерями
Бит/(Пиксели*Кадры)                      : 0.241
Размер потока                            : 513 Мбайт (93%)
Библиотека кодирования                   : XviD 1.2.1 (UTC 2008-12-04)
Аудио
Идентификатор                            : 1
Формат                                   : MPEG Audio
Версия формата                           : Version 1
Профиль формата                          : Layer 3
Идентификатор кодека                     : 55
Идентификатор кодека/Подсказка           : MP3
Продолжительность                        : 42 м.
Вид битрейта                             : Постоянный
Битрейт                                  : 128 Кбит/сек
Каналы                                   : 2 канала
Частота                                  : 44,1 КГц
Метод сжатия                             : С потерями
Размер потока                            : 38,7 Мбайт (7%)
Выравнивание                             : Разделение по промежуткам
Продолжительность промежутка             : 40  мс. (1,00 видеокадр)
Время предзагрузки промежутка            : 500  мс.
Библиотека кодирования                   : LAME3.99r
Настройки программы                      : -m s -V 4 -q 2 -lowpass 17 -b 128
Скриншоты:
       
Вне форума [Профиль] [ЛС]
Похожие темы
Форум Тема Автор Торрент Отв. Посл. сообщение
./templates/default/images/folder_dl.gif Обучающее видео Михаил Юдин | Cinema 4D. Динамика и разрушение (2012) [HDRip] UndegraundMen
1 | 0

1 | 2505

43

2013-10-21 07:48
Dracula Последнее
./templates/default/images/folder_dl.gif Обучающее видео Михаил Бычков | Супер Cinema 4D (2018) PCRec [H.264/1080p-LQ] }{@R0N
1 | 0

1 | 322

6

2018-11-09 22:48
geraman Последнее
./templates/default/images/folder_dl.gif Компьютерная литература Михаил Смирнов | Как самостоятельно раскрутить свой аккаунт в Instagram (2019) [PDF, RTF] }{@R0N
1 | 0

0 | 41

3

2019-01-12 16:40
}{@R0N Последнее
Показать сообщения:    
Ответить на тему

Текущее время: Сегодня 00:01

Часовой пояс: GMT + 3



Вы не можете начинать темы
Вы не можете отвечать на сообщения
Вы не можете редактировать свои сообщения
Вы не можете удалять свои сообщения
Вы не можете голосовать в опросах
Вы не можете прикреплять файлы к сообщениям
Вы не можете скачивать файлы