Сегодня идет свободное скачивание без начисления Download

Уральские пельмени. О спорт, нам лень! (2015.12.25) WEB-DL [H.264/720p-LQ]

Ответить на тему
 
Автор
Сообщение

moralis ®

Пол:

Стаж: 3 года 8 месяцев

Сообщений: 1686

Торрент-статистика

Пост 26-Дек-2015 22:59

[Цитировать]

Уральские пельмени. О спорт, нам лень! (2015.12.25)- Телекомпания: СТС
Жанр: Юмор
Описание:
Весёлые парни в мандариновых рубашках не дадут соскучиться и подарят отличное настроение всей семье. У юмора «Уральских пельменей» нет возрастных ограничений, они избегают «шуток ниже пояса» и на их концертах пятилетние дети смеются рядом с 50-ти летними взрослыми. Новое комедийное шоу включает в себя как самостоятельные сценические истории, так и импровизации с залом, а также смешные сценки со звёздами, которые пришли посмотреть на любимую команду и неожиданно для себя оказались на сцене.
Не пропусти новое шоу:
10 многообещающих атлетов из Екатеринбурга ждут вас на новом шоу «О спорт, нам лень!». Абсолютные чемпионы по смеху с препятствиями! Мастера спорта по очень-очень легкой атлетике! Они делают 3 подхода по 12 раз к столу! Их гантели поднимаются силой мысли, а во время проверки их допинга - пьянеют все комиссии! "Уральские Пельмени" будут бить очередные аккорды в новой программе «О спорт, нам лень!»
Участники:
Дмитрий Брекоткин, Сергей Ершов, Сергей Исаев, Сергей Калугин, Вячеслав Мясников, Сергей Нетиевский, Александр Попов, Андрей Рожков, Дмитрий Соколов, Максим Ярица, Юля Михалкова и др.
Продолжительность: 01:12:23
Качество видео: WEB-DL
Видео: AVC/H.264, 1280x720, 2676 kb/s
Аудио: 48 kHz, AC3 Dolby Digital, 2/0 (L,R) ch, ~192 kbps

MI

Код:
Общее
Уникальный идентификатор                 : 175701706907839374024694850734581874433 (0x842EEAF8F68F1B818E71B7E5D4CBFF01)
Полное имя                               : D:\Релизы\Уральские.пельмени.О.спорт.нам.лень.(2015.12.25).WEB-DL.[720p].nnm-club.mkv
Формат                                   : Matroska
Версия формата                           : Version 2
Размер файла                             : 1,48 Гбайт
Продолжительность                        : 1 ч. 12 м.
Общий поток                              : 2926 Кбит/сек
Дата кодирования                         : UTC 2015-12-26 09:23:19
Программа кодирования                    : mkvmerge v7.8.0 ('River Man') 32bit built on Apr  3 2015 12:11:22
Библиотека кодирования                   : libebml v1.3.1 + libmatroska v1.4.2
Видео
Идентификатор                            : 1
Формат                                   : AVC
Формат/Информация                        : Advanced Video Codec
Профиль формата                          : [url=mailto:High@L3.1]High@L3.1[/url]
Параметр CABAC формата                   : Да
Параметр ReFrames формата                : 1 кадр
Идентификатор кодека                     : V_MPEG4/ISO/AVC
Продолжительность                        : 1 ч. 12 м.
Битрейт                                  : 2676 Кбит/сек
Ширина                                   : 1280 пикселей
Высота                                   : 720 пикселей
Соотношение сторон                       : 16:9
Режим частоты кадров                     : Постоянный
Частота кадров                           : 25,000 кадров/сек
Цветовое пространство                    : YUV
Субдискретизация насыщенности            : 4:2:0
Битовая глубина                          : 8 бит
Тип развёртки                            : Прогрессивная
Бит/(Пиксели*Кадры)                      : 0.116
Размер потока                            : 1,35 Гбайт (91%)
Default                                  : Да
Forced                                   : Нет
Аудио
Идентификатор                            : 2
Формат                                   : AC-3
Формат/Информация                        : Audio Coding 3
Расширение режима                        : CM (complete main)
Параметр Endianness формата              : Big
Идентификатор кодека                     : A_AC3
Продолжительность                        : 1 ч. 12 м.
Вид битрейта                             : Постоянный
Битрейт                                  : 192 Кбит/сек
Каналы                                   : 2 канала
Расположение каналов                     : Front: L R
Частота                                  : 44,1 КГц
Метод сжатия                             : С потерями
Размер потока                            : 99,4 Мбайт (7%)
Default                                  : Да
Forced                                   : Нет
Скриншоты:        
Вне форума [Профиль] [ЛС]
Показать сообщения:    
Ответить на тему

Текущее время: Сегодня 00:52

Часовой пояс: GMT + 3



Вы не можете начинать темы
Вы не можете отвечать на сообщения
Вы не можете редактировать свои сообщения
Вы не можете удалять свои сообщения
Вы не можете голосовать в опросах
Вы не можете прикреплять файлы к сообщениям
Вы не можете скачивать файлы