Сегодня идет свободное скачивание без начисления Download

Орел и решка. Сезон №11. Выпуск №10. Юбилейный сезон. Часть 2: Детройт (2015.10.18) SATRip

Ответить на тему
 
Автор
Сообщение

Omen ®

Стаж: 6 лет 2 месяца

Сообщений: 184293

Торрент-статистика

Пост 18-Окт-2015 19:56

[Цитировать]

Орел и решка. Сезон №11. Выпуск №10.
Юбилейный сезон. Часть 2: Детройт (2015.10.18)
- Телекомпания: ИНТЕР & Пятница &
Жанр: Реалити-шоу, путешествия, география, познавательный
Режиссер: Антон Щербаков, Евгений Синельников
Ведущий: Андрей Бедняков, Жанна Бадоева, Анастасия Короткая, Леся Никитюк, Николай Серга, Регина Тодоренко, Евгений Синельнико
Описание:
Каждая программа рассказывает об одной стране или городе с двух точек зрения путешественника, не ограниченного в средствах, и тотально экономного. Ведущие в начале каждой программы подкидывают монетку, чтобы выяснить, кто из них летит с золотой кредитной карточкой, а кто – со 100 евро (или 100 $ в зависимости от страны). Конечно тот, кто волею монетки получает золотую кредитку, вкушает все прелести страны по полной программе – к его услугам роскошные отели, рестораны, эксклюзивные развлечения, отдых, дорогой шоппинг, закрытые вечеринки, встречи с местными звездами. Ну а если выпало лететь с минимальными деньгами… тоже не беда! Естественно придется экономить, находить бесплатные ночлеги, путешествовать автостопом, ввязываться в авантюры, питаться тем, что попадает под руку или упало с дерева. Но это незабываемая возможность пережить настоящее приключение! Орел или решка? Авантюра или роскошный отдых? Наши герои вовлекут нас в невероятное путешествие, где каждый сможет увидеть две грани одной страны.
Релиз от: Thunder
Продолжительность: ~ 00:49:29
Качество видео: SATRip
Видео: MPEG4, XviD, 720x400 (16:9), 25.000 fps, 1 497 Kbps (0.208 bit/pixel)
Аудио: AC-3, 48.0 KHz, 2 ch, 128 Kbps, CBR

Mediainfo:

Код:
Формат                                   : AVI
Формат/Информация                        : Audio Video Interleave
Размер файла                             : 579 Мбайт
Продолжительность                        : 49 м.
Общий поток                              : 1635 Кбит/сек
Название фильма                          : Detroit
Режиссёр                                 : SATRip by Thunder
Программа кодирования                    : VirtualDubMod 1.5.10.3 | [url=http://www.virtualdub-fr.org]www.virtualdub-fr.org[/url] || (build 2550/release)
Формат оригинала/Имя                     : Documentary
Видео
Идентификатор                            : 0
Формат                                   : MPEG-4 Visual
Профиль формата                          : Advanced Simple@L5
Параметр BVOP формата                    : 1
Параметр QPel формата                    : Нет
Параметр GMC формата                     : Без точки перехода
Параметр матрицы формата                 : Default (H.263)
Идентификатор кодека                     : XVID
Идентификатор кодека/Подсказка           : XviD
Продолжительность                        : 49 м.
Битрейт                                  : 1497 Кбит/сек
Ширина                                   : 720 пикселей
Высота                                   : 400 пикселей
Соотношение сторон                       : 16:9
Частота кадров                           : 25,000 кадров/сек
Цветовое пространство                    : YUV
Субдискретизация насыщенности            : 4:2:0
Битовая глубина                          : 8 бит
Тип развёртки                            : Прогрессивная
Метод сжатия                             : С потерями
Бит/(Пиксели*Кадры)                      : 0.208
Размер потока                            : 530 Мбайт (92%)
Библиотека кодирования                   : XviD 1.2.1 (UTC 2008-12-04)
Аудио
Идентификатор                            : 1
Формат                                   : AC-3
Формат/Информация                        : Audio Coding 3
Расширение режима                        : CM (complete main)
Параметр Endianness формата              : Big
Идентификатор кодека                     : 2000
Продолжительность                        : 49 м.
Вид битрейта                             : Постоянный
Битрейт                                  : 128 Кбит/сек
Каналы                                   : 2 канала
Расположение каналов                     : Front: L R
Частота                                  : 48,0 КГц
Битовая глубина                          : 16 бит
Метод сжатия                             : С потерями
Размер потока                            : 45,3 Мбайт (8%)
Выравнивание                             : Разделение по промежуткам
Продолжительность промежутка             : 40  мс. (1,00 видеокадр)
Время предзагрузки промежутка            : 500  мс.
Скриншоты:
       
Вне форума [Профиль] [ЛС]
Показать сообщения:    
Ответить на тему

Текущее время: Сегодня 00:37

Часовой пояс: GMT + 3



Вы не можете начинать темы
Вы не можете отвечать на сообщения
Вы не можете редактировать свои сообщения
Вы не можете удалять свои сообщения
Вы не можете голосовать в опросах
Вы не можете прикреплять файлы к сообщениям
Вы не можете скачивать файлы