Сегодня идет свободное скачивание без начисления Download

Голос. Сезон №4. Выпуск №7 (2015.10.16) SATRip

Ответить на тему
 
Автор
Сообщение

NarDok ®

Стаж: 7 лет

Сообщений: 924

Торрент-статистика

Пост 16-Окт-2015 18:27

[Цитировать]

Голос. Сезон №4. Выпуск №7 (2015.10.16)
Телекомпания: Первый канал
Жанр: ТВ-Шоу, развлекательный
Описание:
"Первый канал" объявляет о премьере нового сезона музыкального проекта "Голос". Из тысяч претендентов, приславших минувшим летом свои заявки на участие, отобраны полторы сотни тех, кто поднимется на ставшую уже знаменитой на всю страну сцену во время "слепых прослушиваний" в надежде покорить слух требовательных наставников. Зрителей ждут новые голоса, новые мелодии и новые песни. Музыкальные наставники наберут свои команды, а затем сами же "разберут" их, открывая дорогу вперед лишь лучшим из лучших. В конце концов дальнейшую судьбу участников будут решать уже зрители на прямых эфирах, а в финале сезона страна узнает имя победителя нового "Голоса"!
Ведущий: Дмитрий Нагиев
Жюри: Григорий Лепс, Полина Гагарина, Баста и Александр Градский.
Продолжительность: 01:43:45
Качество видео: SATRip
Видео: XviD, 704x448, 1799 Kbps
Аудио: 48 kHz, AC3 Dolby Digital, 2/0 (L,R) ch, ~192 kbps

Правила Шоу

Шоу "Голос" состоит из шести этапов.
Первым этапом для участников, прошедших предварительный отбор, становятся слепые прослушивания.
Слепые прослушивания
Участники выступают по одному с живым аккомпанементом. Наставники не видят участников, но слышат и оценивают их голоса.
Любой Наставник может взять исполнителя в свою команду. Если участника выбрали несколько Наставников, то он сам выбирает, в чью команду идти.
К концу этапа в каждой из четырех команд окажется по 14 участников.
Поединки
Наставники передают участникам свое мастерство, помогают осваивать сцену, но при этом они должны выбрать лучших. Участники соревнуются между собой в Поединках.
В каждом Поединке двое представителей одной команды исполняют вместе одну песню и в следующий этап проходит лучший по мнению Наставника.
Каждый Наставник может "спасти" двоих участников, вылетевших из команд других Наставников.
Нокауты
Игра на выбывание продолжается. Наставники разбивают свои команды на тройки, где каждый из участников исполняет по одной песне.
Двое по выбору Наставника проходят в следующий этап, а третий покидает проект.
Четвертьфиналы
Конкурсанты в прямом эфире сражаются в тройках с другими участниками своей команды. Каждый исполняет свою песню.
В каждой тройке Наставник распределяет свои 100% голосов между тремя участниками в пропорции 20\30\50.
Зрители при помощи SMS голосуют за того или иного участника.
Проценты от зрительского голосования прибавляются к процентам Наставника, и участник с наибольшим числом голосов проходит в полуфинал.
Таким образом, зрители вместе с Наставником решают, кто останется в проекте.
Полуфинал
У каждого конкурсанта вновь есть лишь одна песня, чтобы доказать свое право остаться в проекте. Наставники и зрители распределяют свои голоса в прямом эфире. Только один участник из каждой команды, выбранный Наставником и получивший наибольшее число голосов зрителей, пройдет дальше.
Финал
В финале сражаются четверо лучших участников проекта. Каждый из них исполняет одну песню соло, другую — дуэтом со своим наставником.
После этого телезрители голосуют за конкурсантов в прямом эфире. Участник, набравший минимальное число голосов, выбывает.
Оставшиеся участники исполняют еще по одной песне, а телезрители через SMS-голосование выбирают победителя проекта.

MI

Общее
Полное имя : D:\Релизы\Голос. Сезон 4. Выпуск 07 (2015.10.16).avi
Формат : AVI
Формат/Информация : Audio Video Interleave
Размер файла : 1,45 Гбайт
Продолжительность : 1 ч. 43 м.
Общий поток : 2001 Кбит/сек
Программа кодирования : VirtualDubMod 1.5.10.3 | (build 2550/release)
Библиотека кодирования : VirtualDubMod build 2550/release
Видео
Идентификатор : 0
Формат : MPEG-4 Visual
Профиль формата : Advanced Simple@L5
Параметр BVOP формата : 2
Параметр QPel формата : Нет
Параметр GMC формата : Без точки перехода
Параметр матрицы формата : Default (H.263)
Идентификатор кодека : XVID
Идентификатор кодека/Подсказка : XviD
Продолжительность : 1 ч. 43 м.
Битрейт : 1799 Кбит/сек
Ширина : 704 пикселя
Высота : 448 пикселей
Соотношение сторон : 16:10
Частота кадров : 25,000 кадров/сек
Цветовое пространство : YUV
Субдискретизация насыщенности : 4:2:0
Битовая глубина : 8 бит
Тип развёртки : Прогрессивная
Метод сжатия : С потерями
Бит/(Пиксели*Кадры) : 0.228
Размер потока : 1,30 Гбайт (90%)
Библиотека кодирования : XviD 1.2.1 (UTC 2008-12-04)
Аудио
Идентификатор : 1
Формат : AC-3
Формат/Информация : Audio Coding 3
Расширение режима : CM (complete main)
Параметр Endianness формата : Big
Идентификатор кодека : 2000
Продолжительность : 1 ч. 43 м.
Вид битрейта : Постоянный
Битрейт : 192 Кбит/сек
Каналы : 2 канала
Расположение каналов : Front: L R
Частота : 48,0 КГц
Метод сжатия : С потерями
Размер потока : 142 Мбайт (10%)
Выравнивание : Разделение по промежуткам
Продолжительность промежутка : 40 мс. (1,00 видеокадр)
Время предзагрузки промежутка : 500 мс.
Скриншоты:        

_________________

Вне форума [Профиль] [ЛС]
Похожие темы
Форум Тема Автор Торрент Отв. Посл. сообщение
./templates/default/images/folder_dl.gif Обучающее видео Наталия Махно | Сексуальный Голос за 21 день (мужской тренинг) (2012) [TXT, MP3, MP4] XP1971
0 | 1

0 | 3449

19

2017-06-11 14:16
XP1971 Последнее
Показать сообщения:    
Ответить на тему

Текущее время: Сегодня 23:50

Часовой пояс: GMT + 3



Вы не можете начинать темы
Вы не можете отвечать на сообщения
Вы не можете редактировать свои сообщения
Вы не можете удалять свои сообщения
Вы не можете голосовать в опросах
Вы не можете прикреплять файлы к сообщениям
Вы не можете скачивать файлы