Сегодня идет свободное скачивание без начисления Download

Танковый биатлон. Сезон №3. Выпуск №2 (2015.08.29) HDTV [H.264/1080i]

Ответить на тему
 
Автор
Сообщение

Omen ®

Стаж: 6 лет 2 месяца

Сообщений: 184293

Торрент-статистика

Пост 29-Авг-2015 12:57

[Цитировать]

Танковый биатлон. Сезон №3. Выпуск №2 (2015.08.29) - Телекомпания: Россия HD
Жанр: Cпорт, Военно-спортивное шоу
Ведущий: Дмитрий Губерниев
Описание:
Масштабное военно-спортивное шоу "Танковый биатлон-2015"!
Это шоу можно назвать чемпионатом мира по танковому биатлону. Беспрецедентные учения-соревнования, идея организации которых принадлежит министру обороны России Сергею Шойгу, привлекли внимание всего мира. Если в первом сезоне "Танкового биатлона" участвовали танкисты из четырех стран - Армении, Белоруссии, Казахстана и России, - то на следующий год на полигон в Алабино выехали танки уже из 12 государств. Третий сезон будет еще более представительным. Свое участие в "Танковом биатлоне-2015" подтвердили 13 стран: Россия, Ангола, Армения, Венесуэла, Индия, Казахстан, Киргизия, Китай, Кувейт, Монголия, Никарагуа, Сербия, Таджикистан.
Все экипажи из 13 стран на своих боевых машинах пройдут все этапы соревнования и завершат его эстафетой – все, как в настоящем биатлоне, только вместо лыж и винтовок в дело вступают танки. Бороться за победу участникам предстоит в трудных, приближенных к боевым условиях.
"Танковый биатлон-2015" обещает стать по-настоящему грандиозным и впечатляющим зрелищем. На сегодня это один из самых сложных технологических проектов современного телевидения. Чтобы передать масштаб и азарт соревнования, на съемках используется рекордное количество техники. Из 169 камер, снимающих "Танковый биатлон-2015", две будут отвечать за общие планы с вертолетов, более сотни камер GoPro будут закреплены на броню и в кабины танков, а также на полосу препятствий. Частью камер управляют роботы – людям приближаться к мишеням строжайше запрещено.
Пять выпусков шоу "Танковый биатлон", в котором соединилась военная мощь и азарт большого спорта, зрители телеканала "Россия" смогут увидеть в ближайшее время.
Релиз от: olegka7373
Продолжительность: ~ 00:52:01
Качество видео: HDTV
Видео: AVC, 1920x1080 (16:9), 25.000 fps, 8 190 Kbps (0.158 bit/pixel)
Аудио: MP2, 48.0 KHz, 2 ch, 224 Kbps, CBR (Russian)

Mediainfo:

Код:
Формат                                   : MPEG-TS
Размер файла                             : 3,22 Гбайт
Продолжительность                        : 52 м.
Режим общего битрейта                    : Переменный
Общий поток                              : 8853 Кбит/сек
Видео
Идентификатор                            : 1901 (0x76D)
Идентификатор меню                       : 60 (0x3C)
Формат                                   : AVC
Формат/Информация                        : Advanced Video Codec
Профиль формата                          : High@L4
Параметр CABAC формата                   : Да
Параметр ReFrames формата                : 3 кадра
Идентификатор кодека                     : 27
Продолжительность                        : 52 м.
Битрейт                                  : 8190 Кбит/сек
Ширина                                   : 1920 пикселей
Высота                                   : 1080 пикселей
Соотношение сторон                       : 16:9
Частота кадров                           : 25,000 кадров/сек
Стандарт вещания                         : Component
Цветовое пространство                    : YUV
Субдискретизация насыщенности            : 4:2:0
Битовая глубина                          : 8 бит
Тип развёртки                            : Чересстрочная
Порядок развёртки                        : Верхнее поле первое
Бит/(Пиксели*Кадры)                      : 0.158
Размер потока                            : 2,98 Гбайт (92%)
Цветовой диапазон                        : Limited
Основные цвета                           : BT.709
Характеристики трансфера                 : BT.709
Коэффициенты матрицы                     : BT.709
Аудио
Идентификатор                            : 2901 (0xB55)
Идентификатор меню                       : 60 (0x3C)
Формат                                   : MPEG Audio
Версия формата                           : Version 1
Профиль формата                          : Layer 2
Идентификатор кодека                     : 3
Продолжительность                        : 52 м.
Вид битрейта                             : Постоянный
Битрейт                                  : 224 Кбит/сек
Каналы                                   : 2 канала
Частота                                  : 48,0 КГц
Метод сжатия                             : С потерями
Задержка видео                           : -80 мс.
Размер потока                            : 83,3 Мбайт (3%)
Язык                                     : Russian
Скриншоты:
       
Вне форума [Профиль] [ЛС]
Показать сообщения:    
Ответить на тему

Текущее время: Сегодня 00:37

Часовой пояс: GMT + 3



Вы не можете начинать темы
Вы не можете отвечать на сообщения
Вы не можете редактировать свои сообщения
Вы не можете удалять свои сообщения
Вы не можете голосовать в опросах
Вы не можете прикреплять файлы к сообщениям
Вы не можете скачивать файлы