Сегодня идет свободное скачивание без начисления Download

Comedy Баттл. Последний сезон. Выпуск №6 / Комеди Клаб / Comedy Club (2015.05.08) SATRip

Ответить на тему
 
Автор
Сообщение

Omen ®

Стаж: 6 лет 2 месяца

Сообщений: 184293

Торрент-статистика

Пост 08-Май-2015 20:00

[Цитировать]

Comedy Баттл. Последний сезон. Выпуск №6 / Комеди Клаб / Comedy Club - Телекомпания: ТНТ
Жанр: ТВ-Шоу
Описание:
Стартует заключительный сезон проекта, который уже давно стал кузницей кадров для многих других шоу. Причем не только канала ТНТ. Засветившись в эфире «Баттла», юмористы начинают активно стендапить, писать сценарии для крупных (и не обязательно юмористических) сериалов, выходят на сцену Comedy Club, в конце концов.
Ведущий: Павел Воля
Жюри: Семен Слепаков, Сергей Светлаков и Гарик Мартиросян
Продолжительность: ~ 00:47:49
Качество видео: SATRip
Видеокодек: XviD
Битрейт видео: ~1800 kb/s
Размер кадра: 720 x 400
Аудиокодек: MP3, 2ch.
Битрейт аудио: 128 kb/s

Mediainfo:

Код:
Формат                                   : AVI
Формат/Информация                        : Audio Video Interleave
Размер файла                             : 663 Мбайт
Продолжительность                        : 47 м.
Общий поток                              : 1937 Кбит/сек
Программа кодирования                    : VirtualDubMod 1.5.10.3 | [url=http://www.virtualdub-fr.org]www.virtualdub-fr.org[/url] || (build 2550/release)
Библиотека кодирования                   : VirtualDubMod build 2550/release
Видео
Идентификатор                            : 0
Формат                                   : MPEG-4 Visual
Профиль формата                          : Advanced Simple@L5
Параметр BVOP формата                    : 2
Параметр QPel формата                    : Нет
Параметр GMC формата                     : Без точки перехода
Параметр матрицы формата                 : Default (H.263)
Идентификатор кодека                     : XVID
Идентификатор кодека/Подсказка           : XviD
Продолжительность                        : 47 м.
Битрейт                                  : 1800 Кбит/сек
Ширина                                   : 720 пикселей
Высота                                   : 400 пикселей
Соотношение сторон                       : 16:9
Частота кадров                           : 25,000 кадров/сек
Цветовое пространство                    : YUV
Субдискретизация насыщенности            : 4:2:0
Битовая глубина                          : 8 бит
Тип развёртки                            : Прогрессивная
Метод сжатия                             : С потерями
Бит/(Пиксели*Кадры)                      : 0.250
Размер потока                            : 616 Мбайт (93%)
Библиотека кодирования                   : XviD 1.2.1 (UTC 2008-12-04)
Аудио
Идентификатор                            : 1
Формат                                   : MPEG Audio
Версия формата                           : Version 1
Профиль формата                          : Layer 3
Режим                                    : Joint stereo
Расширение режима                        : MS Stereo
Идентификатор кодека                     : 55
Идентификатор кодека/Подсказка           : MP3
Продолжительность                        : 47 м.
Вид битрейта                             : Постоянный
Битрейт                                  : 128 Кбит/сек
Каналы                                   : 2 канала
Частота                                  : 48,0 КГц
Метод сжатия                             : С потерями
Размер потока                            : 43,8 Мбайт (7%)
Выравнивание                             : Соединение по промежуткам
Продолжительность промежутка             : 40  мс. (1,00 видеокадр)
Время предзагрузки промежутка            : 504  мс.
Библиотека кодирования                   : LAME3.99r
Настройки программы                      : -m j -V 4 -q 9 -lowpass 17 -b 128
Скриншоты:        
Вне форума [Профиль] [ЛС]
Показать сообщения:    
Ответить на тему

Текущее время: Сегодня 23:50

Часовой пояс: GMT + 3



Вы не можете начинать темы
Вы не можете отвечать на сообщения
Вы не можете редактировать свои сообщения
Вы не можете удалять свои сообщения
Вы не можете голосовать в опросах
Вы не можете прикреплять файлы к сообщениям
Вы не можете скачивать файлы