Сегодня идет свободное скачивание без начисления Download

[Profileschool] Алексей Шадрин | Пленочная фотография: за и против (Алексей Шадрин)[ 2015.,Обучающее видео]PCRec

Ответить на тему
 
Автор
Сообщение

sashau ®

Пол:

Стаж: 7 лет 1 месяц

Сообщений: 3533

Торрент-статистика

Пост 13-Апр-2015 04:16

[Цитировать]

[Profileschool] Алексей Шадрин
Пленочная фотография: за и против
- Автор (режиссер): Алексей Шадрин
Жанр: Обучающее видео
Продолжительность: 02:49:38
Качество видео: PCRec
Видеокодек: AVC (H264)
Битрейт видео: ~1400Kbps
Размер кадра: 1920x1080
Аудиокодек: AAC 2.0
Битрейт аудио: 160 kbps (VBR), 2 Ch, 44100 Hz
Описание:
Семинар призван развеять мифы вокруг этой темы и помочь вам определиться с выбором своего основного изобразительного инструмента. Вы разберетесь с преимуществами и недостатками «пленки» в сравнении с современной цифровой технологией. Узнаете, в каком именно жанре пленочная технология незаменима, а в каком не дает ничего, кроме неудобств и расходов. Поймете, как компенсировать и минимизировать финансовые и временные издержки при обращении к пленочной фотографии. Традиционно для семинаров Алексея Шадрина – увидите уникальные изобразительные материалы: сканы слайдов и негативы.

MediaInfo

Формат : MPEG-4
Профиль формата : Base Media / Version 2
Идентификатор кодека : mp42
Размер файла : 1,84 Гбайт
Продолжительность : 2 ч. 49 м.
Режим общего битрейта : Переменный
Общий поток : 1556 Кбит/сек
Дата кодирования : UTC 2015-04-12 07:00:33
Дата пометки : UTC 2015-04-12 09:56:06
Видео
Идентификатор : 1
Формат : AVC
Формат/Информация : Advanced Video Codec
Профиль формата : [url=mailto:Main@L5.0]Main@L5.0[/url]
Параметр CABAC формата : Да
Параметр ReFrames формата : 5 кадров
Идентификатор кодека : avc1
Идентификатор кодека/Информация : Advanced Video Coding
Продолжительность : 2 ч. 49 м.
Битрейт : 1431 Кбит/сек
Ширина : 1920 пикселей
Высота : 1080 пикселей
Соотношение сторон : 16:9
Режим частоты кадров : Постоянный
Частота кадров : 30,000 кадров/сек
Цветовое пространство : YUV
Субдискретизация насыщенности : 4:2:0
Битовая глубина : 8 бит
Тип развёртки : Прогрессивная
Бит/(Пиксели*Кадры) : 0.023
Размер потока : 1,69 Гбайт (92%)
Дата кодирования : UTC 2015-04-12 07:00:33
Дата пометки : UTC 2015-04-12 09:56:06
Основные цвета : BT.709
Характеристики трансфера : BT.709
Коэффициенты матрицы : BT.709
Аудио
Идентификатор : 2
Формат : AAC
Формат/Информация : Advanced Audio Codec
Профиль формата : LC
Идентификатор кодека : 40
Продолжительность : 2 ч. 49 м.
Вид битрейта : Переменный
Битрейт : 121 Кбит/сек
Максимальный битрейт : 166 Кбит/сек
Каналы : 2 канала
Расположение каналов : Front: L R
Частота : 44,1 КГц
Метод сжатия : С потерями
Размер потока : 147 Мбайт (8%)
Дата кодирования : UTC 2015-04-12 07:00:33
Дата пометки : UTC 2015-04-12 07:05:50
Скриншоты:
       
Вне форума [Профиль] [ЛС]
Похожие темы
Форум Тема Автор Торрент Отв. Посл. сообщение
./templates/default/images/folder_dl.gif Обучающее видео [profileschool] Алексей Довгуля | Студийная съемка (2014) PCRec Omen
1 | 0

0 | 3495

110

2014-09-28 20:05
Omen Последнее
./templates/default/images/folder_dl.gif Обучающее видео [Profileschool] Алексей Шадрин | Фундаментальная цветокоррекция фотографических изображений (2014) PCRec Omen
1 | 0

0 | 3028

97

2015-01-07 14:53
Omen Последнее
./templates/default/images/folder_dl.gif Обучающее видео [Profileschool] Дмитрий Шатров | Жанровая съемка в путешествии (2015) PCRec Omen
1 | 0

0 | 1432

36

2015-04-06 16:23
Omen Последнее
./templates/default/images/folder_dl.gif Обучающее видео [Profileschool] Алексей Шадрин | Секреты современного искусства - Марк Шагал (2015) PCRec Omen
1 | 0

0 | 1451

34

2015-04-06 16:23
Omen Последнее
./templates/default/images/folder_dl.gif Обучающее видео [Profileschool] Коммерческая ретушь [2015, RUS] Omen
1 | 0

0 | 1980

27

2015-08-15 15:00
Omen Последнее
./templates/default/images/folder_dl.gif Обучающее видео [Profileschool] | Секреты цветокоррекции слайдов и негативов (2015) PCRec [H.264/1080p] Omen
1 | 0

0 | 1478

27

2015-08-19 13:10
Omen Последнее
./templates/default/images/folder_dl.gif Обучающее видео [Profileschool] Портретная ретушь: интенсив [2014, RUS] Omen
1 | 0

0 | 1036

15

2015-09-23 03:00
Omen Последнее
./templates/default/images/folder_dl.gif Обучающее видео [Profileschool] Я и фотолаборатория: правила взаимоотношений [2015, RUS] Omen
1 | 0

0 | 972

11

2015-09-26 00:00
Omen Последнее
./templates/default/images/folder_dl.gif Обучающее видео [Profileschool] Мастер-класс: Маски. Практика применения [2013, RUS] Omen
1 | 0

0 | 1503

12

2015-10-05 18:53
Omen Последнее
./templates/default/images/folder_dl.gif Обучающее видео [Profileschool] Калибровка монитора от А до Я [2014, RUS] Omen
1 | 0

0 | 1210

8

2015-10-05 18:56
Omen Последнее
Показать сообщения:    
Ответить на тему

Текущее время: Сегодня 06:28

Часовой пояс: GMT + 3



Вы не можете начинать темы
Вы не можете отвечать на сообщения
Вы не можете редактировать свои сообщения
Вы не можете удалять свои сообщения
Вы не можете голосовать в опросах
Вы не можете прикреплять файлы к сообщениям
Вы не можете скачивать файлы