Сегодня идет свободное скачивание без начисления Download

(Post-Punk) Franz Ferdinand - Greatest Hits - 2005, FLAC (image + .cue)

Ответить на тему
 
Автор
Сообщение

caritos ®

Стаж: 5 лет 4 месяца

Сообщений: 7

Торрент-статистика

Пост 06-Янв-2014 20:43

[Цитировать]

Franz Ferdinand - Greatest Hits Жанр: Post-Punk
Год выпуска: 2005
Формат: FLAC (image + .cue)
Продолжительность: 01:18:52
Трэклист:
1. Do You Want To (3:39)
2. This Fire (3:34)
3. Eleanor Put Your Boots On (3:04)
4. The Fallen (3:44)
5. Evil And A Heathen (2:07)
6. Words So Leisured (2:20)
7. I'm Your Villain (3:38)
8. Take Me Out (4:00)
9. Tell Her Tonight (2:19)
10. Outsiders (4:04)
11. Love And Destroy (3:31)
12. The Dark Of The Matinee (4:06)
13. Well That Was Easy (2:51)
14. Darts Of Pleasure (3:01)
15. You're The Reason I'm Leaving (2:49)
16. Jacqueline (3:51)
17. This Boy (2:23)
18. You Could Have It So Much Better (2:42)
19. Cheating On You (2:38)
20. What You Meant (3:26)
21. Walk Away (4:05)
22. Auf Achse (4:22)
23. 40' (3:26)
24. Fade Together (3:03)

EAC Log

Exact Audio Copy V0.99 prebeta 5 from 4. May 2009
Отчёт EAC об извлечении, выполненном 4. января 2014, 18:45
Unknown Artist / Unknown Title
Дисковод: Optiarc DVD RW AD-5280S Adapter: 1 ID: 0
Режим чтения : Достоверность
Использование точного потока : Да
Отключение кэша аудио : Да
Использование указателей C2 : Нет
Коррекция смещения при чтении : 48
Способность читать области Lead-in и Lead-out : Нет
Заполнение пропущенных сэмплов тишиной : Да
Удаление блоков с тишиной в начале и конце : Нет
При вычислениях CRC использовались нулевые сэмплы : Нет
Интерфейс : Встроенный Win32-интерфейс для Win NT/2000
Выходной формат : Пользовательский кодировщик
Выбранный битрейт : 768 kBit/s
Качество : Высокий
Добавление ID3-тэга : Нет
Утилита сжатия : C:\Program Files\Exact Audio Copy\FLAC\FLAC.EXE
Дополнительные параметры : -8 -V -T "ARTIST=%a" -T "TITLE=%t" -T "ALBUM=%g" -T "DATE=%y" -T "TRACKNUMBER=%n" -T "GENRE=%m" -T "COMMENT=%e" %s -o %d
TOC извлечённого CD
Трек | Старт | Длительность | Начальный сектор | Конечный сектор
---------------------------------------------------------------------
1 | 0:00.00 | 3:39.12 | 0 | 16436
2 | 3:39.12 | 3:34.13 | 16437 | 32499
3 | 7:13.25 | 3:04.06 | 32500 | 46305
4 | 10:17.31 | 3:44.35 | 46306 | 63140
5 | 14:01.66 | 2:07.21 | 63141 | 72686
6 | 16:09.12 | 2:20.04 | 72687 | 83190
7 | 18:29.16 | 3:38.29 | 83191 | 99569
8 | 22:07.45 | 4:00.03 | 99570 | 117572
9 | 26:07.48 | 2:19.45 | 117573 | 128042
10 | 28:27.18 | 4:04.06 | 128043 | 146348
11 | 32:31.24 | 3:31.25 | 146349 | 162198
12 | 36:02.49 | 4:06.36 | 162199 | 180684
13 | 40:09.10 | 2:51.74 | 180685 | 193583
14 | 43:01.09 | 3:01.52 | 193584 | 207210
15 | 46:02.61 | 2:49.09 | 207211 | 219894
16 | 48:51.70 | 3:51.04 | 219895 | 237223
17 | 52:42.74 | 2:23.30 | 237224 | 247978
18 | 55:06.29 | 2:42.02 | 247979 | 260130
19 | 57:48.31 | 2:38.57 | 260131 | 272037
20 | 60:27.13 | 3:26.57 | 272038 | 287544
21 | 63:53.70 | 4:05.53 | 287545 | 305972
22 | 67:59.48 | 4:22.59 | 305973 | 325681
23 | 72:22.32 | 3:26.11 | 325682 | 341142
24 | 75:48.43 | 3:03.33 | 341143 | 354900
Характеристики диапазона извлечения и сообщения об ошибках
Выбранный диапазон
Имя файла C:\Users\Герман\Downloads\Franz Ferdinand - Greatest Hits\Franz Ferdinand - Greatest Hits.wav
Пиковый уровень 100.0 %
Качество диапазона 100.0 %
CRC теста 80AC41DE
CRC копии 80AC41DE
Копирование... OK
Ошибок не произошло
Конец отчёта
Вне форума [Профиль] [ЛС]
Показать сообщения:    
Ответить на тему

Текущее время: Сегодня 10:49

Часовой пояс: GMT + 3



Вы не можете начинать темы
Вы не можете отвечать на сообщения
Вы не можете редактировать свои сообщения
Вы не можете удалять свои сообщения
Вы не можете голосовать в опросах
Вы не можете прикреплять файлы к сообщениям
Вы не можете скачивать файлы