Сегодня идет свободное скачивание без начисления Download

Русские народные сказки (1949-1979) BDRip [H.264/1080p]

Ответить на тему
 
Автор
Сообщение

XP1971 ®

Пол:

Стаж: 6 лет 1 месяц

Сообщений: 9338

Торрент-статистика

Пост 17-Янв-2017 08:53

[Цитировать]

Русские народные сказки (1949-1979) BDRip - Производство: "Союзмультфильм"
Жанр: Рисованная анимация
Режиссер: Иван Иванов-Вано, Роман Давыдов, Петр Носов
Описание:
Сборник мультфильмов из серии "Шедевры отечественной мультипликации"
Русские народные сказки
Возраст: 0+ (для любой зрительской аудитории)
Продолжительность: 02:33:10
Качество видео: BDRip
Субтитры: Отсутствуют
Видео: AVC/H.264, 1488х1080, ~7500 kbps
Аудио: AC3, 2 ch, 192 kbps, CBR

Содержание:

В некотором царстве...

Год выпуска: 1957
Жанр: Рисованая анимация, Детский
Описание:
Старинная сказка про царя Гороха, царевну Марью, заморского принца, про Емелю и про чудесную щуку. Чего только не натворил Емеля при помощи выловленной из проруби Щуки, выполнявшей все его желания.
Награды:
- XI МКФ в Карловых Варах, 1958 - Первая премия за лучший анимационный фильм;
- ВКФ в Киеве, 1958 - Первая премия по разделу мультипликационных фильмов;
- Госпремия РСФСР им. Братьев Васильевых - режиссеру Ивану Иванову-Вано
Режиссер: Иван Иванов-Вано
Персонажи: Емеля, щука, царь Горох, царевна Марья, заморский принц
Продолжительность: 00:28:24
Перевод: Оригинальный
Роли озвучивали: Георгий Милляр, Владимир Гуляев, Серафим Аникеев, Григорий Шпигель, Лев Потемкин, Мария Бабанова, Георгий Вицин, Вера Орлова

MI

Format : Matroska
Format version : Version 4 / Version 2
File size : 1.53 GiB
Duration : 28mn 24s
Overall bit rate : 7 693 Kbps
Writing application : XviD4PSP 7.0.345 DAILY
Writing library : Lavf57.41.100
Video
ID : 1
Format : AVC
Format/Info : Advanced Video Codec
Format profile : [url=mailto:High@L4.1]High@L4.1[/url]
Format settings, CABAC : Yes
Format settings, ReFrames : 4 frames
Codec ID : V_MPEG4/ISO/AVC
Duration : 28mn 24s
Bit rate : 7 500 Kbps
Width : 1 472 pixels
Height : 1 080 pixels
Display aspect ratio : 4:3
Frame rate mode : Constant
Frame rate : 25.000 fps
Color space : YUV
Chroma subsampling : 4:2:0
Bit depth : 8 bits
Bits/(Pixel*Frame) : 0.190
Stream size : 1.46 GiB (96%)
Writing library : x264 core 148 r2744M b97ae06
Encoding settings : cabac=1 / ref=4 / deblock=1:-3:-3 / analyse=0x3:0x113 / me=umh / subme=9 / psy=1 / psy_rd=1.05:0.10 / mixed_ref=1 / me_range=24 / chroma_me=1 / trellis=2 / 8x8dct=1 / cqm=0 / deadzone=21,11 / fast_pskip=0 / chroma_qp_offset=-3 / threads=5 / lookahead_threads=1 / sliced_threads=0 / nr=0 / decimate=1 / interlaced=tff / bluray_compat=0 / constrained_intra=0 / bframes=6 / b_pyramid=2 / b_adapt=2 / b_bias=0 / direct=2 / weightb=1 / open_gop=0 / weightp=0 / keyint=250 / keyint_min=25 / scenecut=40 / intra_refresh=0 / rc=2pass / mbtree=0 / bitrate=7500 / ratetol=1.0 / qcomp=0.70 / qpmin=3 / qpmax=69 / qpstep=4 / cplxblur=20.0 / qblur=0.5 / ip_ratio=1.40 / pb_ratio=1.30 / aq=2:1.00
Default : Yes
Forced : No
Audio
ID : 2
Format : AC-3
Format/Info : Audio Coding 3
Mode extension : CM (complete main)
Format settings, Endianness : Big
Codec ID : A_AC3
Duration : 28mn 24s
Bit rate mode : Constant
Bit rate : 192 Kbps
Channel(s) : 2 channels
Channel positions : Front: L R
Sampling rate : 48.0 KHz
Bit depth : 16 bits
Compression mode : Lossy
Stream size : 39.0 MiB (2%)
Default : Yes
Forced : No
       

Волк и семеро козлят

Русское название: Волк и семеро козлят
Год выпуска: 1957
Производство: СССР, Союзмультфильм
Жанр: Мультфильм, короткометражка
Режиссер: Петр Носов
Описание:
Мультипликационный фильм по мотивам известной русской народной сказки о том, как Волк хочет украсть у Козы её семерых козлят, но грубый голос выдаёт его. Волк просит Медведя-кузнеца выковать ему тоненький голосок и крадёт козлят, но его преследуют Коза, зайчата и Дятел. Медведь, узнав об обмане, помогает им и наказывает Волка.

MI

Format : Matroska
Format version : Version 4 / Version 2
File size : 558 MiB
Duration : 10mn 7s
Overall bit rate : 7 700 Kbps
Writing application : XviD4PSP 7.0.345 DAILY
Writing library : Lavf57.41.100
ENCODING_INFO : MATROSKA,WEBM > MKV / H264 > X264 VBR-2P 7500kbps XHQ / AC3 > COPY
Video
ID : 1
Format : AVC
Format/Info : Advanced Video Codec
Format profile : [url=mailto:High@L4.1]High@L4.1[/url]
Format settings, CABAC : Yes
Format settings, ReFrames : 4 frames
Codec ID : V_MPEG4/ISO/AVC
Duration : 10mn 7s
Bit rate : 7 500 Kbps
Width : 1 504 pixels
Height : 1 080 pixels
Display aspect ratio : 1.381
Frame rate mode : Constant
Frame rate : 25.000 fps
Color space : YUV
Chroma subsampling : 4:2:0
Bit depth : 8 bits
Scan type : MBAFF
Bits/(Pixel*Frame) : 0.186
Stream size : 533 MiB (96%)
Writing library : x264 core 148 r2744M b97ae06
Encoding settings : cabac=1 / ref=4 / deblock=1:-3:-3 / analyse=0x3:0x113 / me=umh / subme=9 / psy=1 / psy_rd=1.05:0.10 / mixed_ref=1 / me_range=24 / chroma_me=1 / trellis=2 / 8x8dct=1 / cqm=0 / deadzone=21,11 / fast_pskip=0 / chroma_qp_offset=-3 / threads=5 / lookahead_threads=1 / sliced_threads=0 / nr=0 / decimate=1 / interlaced=tff / bluray_compat=0 / constrained_intra=0 / bframes=6 / b_pyramid=2 / b_adapt=2 / b_bias=0 / direct=2 / weightb=1 / open_gop=0 / weightp=0 / keyint=250 / keyint_min=25 / scenecut=40 / intra_refresh=0 / rc=2pass / mbtree=0 / bitrate=7500 / ratetol=1.0 / qcomp=0.70 / qpmin=3 / qpmax=69 / qpstep=4 / cplxblur=20.0 / qblur=0.5 / ip_ratio=1.40 / pb_ratio=1.30 / aq=2:1.00
Default : Yes
Forced : No
Audio
ID : 2
Format : AC-3
Format/Info : Audio Coding 3
Mode extension : CM (complete main)
Format settings, Endianness : Big
Codec ID : A_AC3
Duration : 10mn 7s
Bit rate mode : Constant
Bit rate : 192 Kbps
Channel(s) : 2 channels
Channel positions : Front: L R
Sampling rate : 48.0 KHz
Bit depth : 16 bits
Compression mode : Lossy
Stream size : 13.9 MiB (2%)
Default : Yes
Forced : No
       

Гуси-лебеди

Русское название: Гуси-лебеди
Год выпуска: 1949
Жанр: Рисованная анимация, Сказка, Детский
Режиссер: Альберт Иванов, Александра Снежко-Блоцкая
Брата уносят волшебные птицы — гуси-лебеди. Сестра отправляется его искать. На пути она встречает печь, яблоню и речку,помогает им . Наконец она попадает к Бабе-Яге, у которой и находится в плену её братец — Баба-Яга заставляет его играть золотыми яблочками. Баба-Яга задумала изжарить сестрицу, так как догадалась о её намерении украсть братца. Девушке с братом удаётся бежать благодаря предупреждению, данному мышью они поочерёдно просят укрытия у речки, яблони и печки, и те прячут их. Спасшись от гусей-лебедей, сестра и брат возвращаются домой.

MI

Format : Matroska
Format version : Version 4 / Version 2
File size : 1 020 MiB
Duration : 18mn 31s
Overall bit rate : 7 698 Kbps
Writing application : XviD4PSP 7.0.346 DAILY
Writing library : Lavf57.41.100
ENCODING_INFO : MATROSKA,WEBM > MKV / H264 > X264 VBR-2P 7500kbps XHQ / AC3 > COPY
Video
ID : 1
Format : AVC
Format/Info : Advanced Video Codec
Format profile : [url=mailto:High@L4.1]High@L4.1[/url]
Format settings, CABAC : Yes
Format settings, ReFrames : 4 frames
Codec ID : V_MPEG4/ISO/AVC
Duration : 18mn 31s
Bit rate : 7 500 Kbps
Width : 1 472 pixels
Height : 1 080 pixels
Display aspect ratio : 4:3
Frame rate mode : Constant
Frame rate : 25.000 fps
Color space : YUV
Chroma subsampling : 4:2:0
Bit depth : 8 bits
Scan type : Progressive
Bits/(Pixel*Frame) : 0.189
Stream size : 974 MiB (96%)
Writing library : x264 core 148 r2744M b97ae06
Encoding settings : cabac=1 / ref=4 / deblock=1:-3:-3 / analyse=0x3:0x113 / me=umh / subme=9 / psy=1 / psy_rd=1.05:0.10 / mixed_ref=1 / me_range=24 / chroma_me=1 / trellis=2 / 8x8dct=1 / cqm=0 / deadzone=21,11 / fast_pskip=0 / chroma_qp_offset=-3 / threads=5 / lookahead_threads=1 / sliced_threads=0 / nr=0 / decimate=1 / interlaced=0 / bluray_compat=0 / constrained_intra=0 / bframes=6 / b_pyramid=2 / b_adapt=2 / b_bias=0 / direct=2 / weightb=1 / open_gop=0 / weightp=2 / keyint=250 / keyint_min=25 / scenecut=40 / intra_refresh=0 / rc=2pass / mbtree=0 / bitrate=7500 / ratetol=1.0 / qcomp=0.70 / qpmin=3 / qpmax=69 / qpstep=4 / cplxblur=20.0 / qblur=0.5 / ip_ratio=1.40 / pb_ratio=1.30 / aq=2:1.00
Default : Yes
Forced : No
Audio
ID : 2
Format : AC-3
Format/Info : Audio Coding 3
Mode extension : CM (complete main)
Format settings, Endianness : Big
Codec ID : A_AC3
Duration : 18mn 31s
Bit rate mode : Constant
Bit rate : 192 Kbps
Channel(s) : 2 channels
Channel positions : Front: L R
Sampling rate : 48.0 KHz
Bit depth : 16 bits
Compression mode : Lossy
Stream size : 25.4 MiB (2%)
Default : Yes
Forced : No
       

Петушок — золотой гребешок

Год выпуска: 1955 г.
Жанр: Рисованая анимация
Описание:
Экранизация народной сказки в обработке А.Толстого.
Режиссер: Петр Носов, Дмитрий Анпилов
По мотивам русской нар. сказки. Молодой петушок жил у котика и дрозда. А хитрая лисичка постоянно пыталась его украсть и съесть.

MI

Format : Matroska
Format version : Version 4 / Version 2
File size : 590 MiB
Duration : 10mn 3s
Overall bit rate : 8 195 Kbps
Writing application : XviD4PSP 7.0.345 DAILY
Writing library : Lavf57.41.100
ENCODING_INFO : MATROSKA,WEBM > MKV / H264 > X264 VBR-2P 8000kbps XHQ / AC3 > COPY
Video
ID : 1
Format : AVC
Format/Info : Advanced Video Codec
Format profile : [url=mailto:High@L4.1]High@L4.1[/url]
Format settings, CABAC : Yes
Format settings, ReFrames : 4 frames
Codec ID : V_MPEG4/ISO/AVC
Duration : 10mn 3s
Bit rate : 8 000 Kbps
Width : 1 488 pixels
Height : 1 080 pixels
Display aspect ratio : 1.370
Frame rate mode : Constant
Frame rate : 25.000 fps
Color space : YUV
Chroma subsampling : 4:2:0
Bit depth : 8 bits
Scan type : MBAFF
Bits/(Pixel*Frame) : 0.200
Stream size : 564 MiB (96%)
Writing library : x264 core 148 r2744M b97ae06
Encoding settings : cabac=1 / ref=4 / deblock=1:-3:-3 / analyse=0x3:0x113 / me=umh / subme=9 / psy=1 / psy_rd=1.05:0.10 / mixed_ref=1 / me_range=24 / chroma_me=1 / trellis=2 / 8x8dct=1 / cqm=0 / deadzone=21,11 / fast_pskip=0 / chroma_qp_offset=-3 / threads=5 / lookahead_threads=1 / sliced_threads=0 / nr=0 / decimate=1 / interlaced=tff / bluray_compat=0 / constrained_intra=0 / bframes=6 / b_pyramid=2 / b_adapt=2 / b_bias=0 / direct=2 / weightb=1 / open_gop=0 / weightp=0 / keyint=250 / keyint_min=25 / scenecut=40 / intra_refresh=0 / rc=2pass / mbtree=0 / bitrate=8000 / ratetol=1.0 / qcomp=0.70 / qpmin=3 / qpmax=69 / qpstep=4 / cplxblur=20.0 / qblur=0.5 / ip_ratio=1.40 / pb_ratio=1.30 / aq=2:1.00
Default : Yes
Forced : No
Audio
ID : 2
Format : AC-3
Format/Info : Audio Coding 3
Mode extension : CM (complete main)
Format settings, Endianness : Big
Codec ID : A_AC3
Duration : 10mn 3s
Bit rate mode : Constant
Bit rate : 192 Kbps
Channel(s) : 2 channels
Channel positions : Front: L R
Sampling rate : 48.0 KHz
Bit depth : 16 bits
Compression mode : Lossy
Stream size : 13.8 MiB (2%)
Default : Yes
Forced : No
       

Последняя невеста Змея Горыныча

Год выпуска: 1978
Жанр: Детский
Язык: русский
Описание:
В основе мультфильма лежит русская народная сказка о добром и бесстрашном солдате, который всегда спешит на помощь тем, кто оказывается в беде.
Режиссер: Роман Давыдов
Персонажи: Юрий Хржановский, Владимир Басов, Александр Баранов, Ольга Громова, Клара Румянова, Юрий Пузырев, В. Телегин, Людмила Касаткина, Елена Тертычная, Герман Качин

MI

Format : Matroska
Format version : Version 4 / Version 2
File size : 982 MiB
Duration : 17mn 50s
Overall bit rate : 7 695 Kbps
Writing application : XviD4PSP 7.0.346 DAILY
Writing library : Lavf57.41.100
ENCODING_INFO : MATROSKA,WEBM > MKV / H264 > X264 VBR-2P 7500kbps XHQ / AC3 > COPY
Video
ID : 1
Format : AVC
Format/Info : Advanced Video Codec
Format profile : [url=mailto:High@L4.1]High@L4.1[/url]
Format settings, CABAC : Yes
Format settings, ReFrames : 4 frames
Codec ID : V_MPEG4/ISO/AVC
Duration : 17mn 50s
Bit rate : 7 500 Kbps
Width : 1 536 pixels
Height : 1 074 pixels
Display aspect ratio : 1.426
Frame rate mode : Constant
Frame rate : 25.000 fps
Color space : YUV
Chroma subsampling : 4:2:0
Bit depth : 8 bits
Scan type : Progressive
Bits/(Pixel*Frame) : 0.182
Stream size : 938 MiB (96%)
Writing library : x264 core 148 r2744M b97ae06
Encoding settings : cabac=1 / ref=4 / deblock=1:-3:-3 / analyse=0x3:0x113 / me=umh / subme=9 / psy=1 / psy_rd=1.05:0.10 / mixed_ref=1 / me_range=24 / chroma_me=1 / trellis=2 / 8x8dct=1 / cqm=0 / deadzone=21,11 / fast_pskip=0 / chroma_qp_offset=-3 / threads=5 / lookahead_threads=1 / sliced_threads=0 / nr=0 / decimate=1 / interlaced=0 / bluray_compat=0 / constrained_intra=0 / bframes=6 / b_pyramid=2 / b_adapt=2 / b_bias=0 / direct=2 / weightb=1 / open_gop=0 / weightp=2 / keyint=250 / keyint_min=25 / scenecut=40 / intra_refresh=0 / rc=2pass / mbtree=0 / bitrate=7500 / ratetol=1.0 / qcomp=0.70 / qpmin=3 / qpmax=69 / qpstep=4 / cplxblur=20.0 / qblur=0.5 / ip_ratio=1.40 / pb_ratio=1.30 / aq=2:1.00
Default : Yes
Forced : No
Audio
ID : 2
Format : AC-3
Format/Info : Audio Coding 3
Mode extension : CM (complete main)
Format settings, Endianness : Big
Codec ID : A_AC3
Duration : 17mn 50s
Bit rate mode : Constant
Bit rate : 192 Kbps
Channel(s) : 2 channels
Channel positions : Front: L R
Sampling rate : 48.0 KHz
Bit depth : 16 bits
Compression mode : Lossy
Stream size : 24.5 MiB (2%)
Default : Yes
Forced : No
       

Сестрица Алёнушка и братец Иванушка

Русское название: Сестрица Аленушка и братец Иванушка
Год выпуска: 1953
Производство: СССР, Союзмультфильм
Жанр: Мультфильм
Режиссер: Ольга Ходатаева
Роли озвучивали: Борис Андреев, Мария Бабанова, Вера Орлова, Анатолий Папанов, Георгий Вицин
Описание:
По мотивам русской народной сказки. Не послушался Иванушка своей сестрицы, испил водицы из лужицы, в которой копытце отпечаталось, и превратился в козленочка…

MI

Format : Matroska
Format version : Version 4 / Version 2
File size : 560 MiB
Duration : 10mn 10s
Overall bit rate : 7 692 Kbps
Writing application : XviD4PSP 7.0.346 DAILY
Writing library : Lavf57.41.100
ENCODING_INFO : MATROSKA,WEBM > MKV / H264 > X264 VBR-2P 7500kbps XHQ / AC3 > COPY
Video
ID : 1
Format : AVC
Format/Info : Advanced Video Codec
Format profile : [url=mailto:High@L4.1]High@L4.1[/url]
Format settings, CABAC : Yes
Format settings, ReFrames : 4 frames
Codec ID : V_MPEG4/ISO/AVC
Duration : 10mn 10s
Bit rate : 7 500 Kbps
Width : 1 488 pixels
Height : 1 080 pixels
Display aspect ratio : 1.372
Frame rate mode : Constant
Frame rate : 25.000 fps
Color space : YUV
Chroma subsampling : 4:2:0
Bit depth : 8 bits
Scan type : Progressive
Bits/(Pixel*Frame) : 0.187
Stream size : 535 MiB (96%)
Writing library : x264 core 148 r2744M b97ae06
Encoding settings : cabac=1 / ref=4 / deblock=1:-3:-3 / analyse=0x3:0x113 / me=umh / subme=9 / psy=1 / psy_rd=1.05:0.10 / mixed_ref=1 / me_range=24 / chroma_me=1 / trellis=2 / 8x8dct=1 / cqm=0 / deadzone=21,11 / fast_pskip=0 / chroma_qp_offset=-3 / threads=5 / lookahead_threads=1 / sliced_threads=0 / nr=0 / decimate=1 / interlaced=0 / bluray_compat=0 / constrained_intra=0 / bframes=6 / b_pyramid=2 / b_adapt=2 / b_bias=0 / direct=2 / weightb=1 / open_gop=0 / weightp=2 / keyint=250 / keyint_min=25 / scenecut=40 / intra_refresh=0 / rc=2pass / mbtree=0 / bitrate=7500 / ratetol=1.0 / qcomp=0.70 / qpmin=3 / qpmax=69 / qpstep=4 / cplxblur=20.0 / qblur=0.5 / ip_ratio=1.40 / pb_ratio=1.30 / aq=2:1.00
Default : Yes
Forced : No
DURATION : 00:10:10.560000000
Audio
ID : 2
Format : AC-3
Format/Info : Audio Coding 3
Mode extension : CM (complete main)
Format settings, Endianness : Big
Codec ID : A_AC3
Duration : 10mn 10s
Bit rate mode : Constant
Bit rate : 192 Kbps
Channel(s) : 2 channels
Channel positions : Front: L R
Sampling rate : 48.0 KHz
Bit depth : 16 bits
Compression mode : Lossy
Stream size : 14.0 MiB (2%)
Default : Yes
Forced : No
       

Царевна-лягушка

Производство: СССР
Жанр: Сказка, Детский, Рисованная анимация
Режиссер: Михаил Цехановский
Роли озвучивали: Маргарита Куприянова, Анатолий Вербицкий, Александр Румнев, Алексей Грибов, Борис Чирков, Владимир Грибков, Георгий Милляр
Описание:
В некотором царстве, в некотором государстве жил-был царь. И задумал он женить своих сыновей. Решили они послать свои стрелы в разные стороны, какая куда попадет, там и невесту искать. Попала посланная Иваном-царевичем стрела на болотную кочку, где сидела лягушка…

MI

Format : Matroska
Format version : Version 4 / Version 2
File size : 2.09 GiB
Duration : 38mn 47s
Overall bit rate : 7 697 Kbps
Writing application : XviD4PSP 7.0.345 DAILY
Writing library : Lavf57.41.100
ENCODING_INFO : MATROSKA,WEBM > MKV / H264 > X264 VBR-2P 7500kbps XHQ / AC3 > COPY
Video
ID : 1
Format : AVC
Format/Info : Advanced Video Codec
Format profile : [url=mailto:High@L4.1]High@L4.1[/url]
Format settings, CABAC : Yes
Format settings, ReFrames : 4 frames
Codec ID : V_MPEG4/ISO/AVC
Duration : 38mn 47s
Bit rate : 7 500 Kbps
Width : 1 488 pixels
Height : 1 080 pixels
Display aspect ratio : 4:3
Frame rate mode : Constant
Frame rate : 25.000 fps
Color space : YUV
Chroma subsampling : 4:2:0
Bit depth : 8 bits
Scan type : MBAFF
Bits/(Pixel*Frame) : 0.188
Stream size : 1.99 GiB (96%)
Writing library : x264 core 148 r2744M b97ae06
Encoding settings : cabac=1 / ref=4 / deblock=1:-3:-3 / analyse=0x3:0x113 / me=umh / subme=9 / psy=1 / psy_rd=1.05:0.10 / mixed_ref=1 / me_range=24 / chroma_me=1 / trellis=2 / 8x8dct=1 / cqm=0 / deadzone=21,11 / fast_pskip=0 / chroma_qp_offset=-3 / threads=5 / lookahead_threads=1 / sliced_threads=0 / nr=0 / decimate=1 / interlaced=tff / bluray_compat=0 / constrained_intra=0 / bframes=6 / b_pyramid=2 / b_adapt=2 / b_bias=0 / direct=2 / weightb=1 / open_gop=0 / weightp=0 / keyint=250 / keyint_min=25 / scenecut=40 / intra_refresh=0 / rc=2pass / mbtree=0 / bitrate=7500 / ratetol=1.0 / qcomp=0.70 / qpmin=3 / qpmax=69 / qpstep=4 / cplxblur=20.0 / qblur=0.5 / ip_ratio=1.40 / pb_ratio=1.30 / aq=2:1.00
Default : Yes
Forced : No
DURATION : 00:38:47.480000000
Audio
ID : 2
Format : AC-3
Format/Info : Audio Coding 3
Mode extension : CM (complete main)
Format settings, Endianness : Big
Codec ID : A_AC3
Duration : 38mn 47s
Bit rate mode : Constant
Bit rate : 192 Kbps
Channel(s) : 2 channels
Channel positions : Front: L R
Sampling rate : 48.0 KHz
Bit depth : 16 bits
Compression mode : Lossy
Stream size : 53.3 MiB (2%)
Default : Yes
Forced : No
       

Чудесный колокольчик

Русское название: Чудесный колокольчик
Год выпуска: 1949
Режиссер: Зинаида Брумберг, Валентина Брумберг
Роли озвучивали: Владимир Готовцев, Т. Цыганок, Галина Новожилова, Вера Бендина, Александра Денисова, Михаил Яншин
Описание фильма:
Мультипликационный фильм по мотивам русских народных сказок о том, как отправила злая мачеха приёмную дочь с глаз долой. Приказала сидеть в лесу, пока не спрядёт целый воз шерсти. Попала Маша в землянку к медведю. Прибрала в горнице, обед приготовила, мышку досыта накормила. Пришёл вечером хозяин. Понравилось ему, как управилась девочка с делами. За ночь спряли они с мышью всю шерсть, а на утро отправили Машу домой с богатыми подарками. Позавидовала мачеха неожиданным дарам и отправила в лес родную дочь — Лушу. Та всё сделала наоборот. В комнате навела беспорядок и медведю с мышкой надерзила. Потребовала себе набить повозку мехами, да серебром с золотом. Поехала домой, но по дороге кони, обратившись в птиц, улетели прочь, а всё её богатство превратилось в кучу черепков.

MI

Format : Matroska
Format version : Version 4 / Version 2
File size : 1.03 GiB
Duration : 19mn 14s
Overall bit rate : 7 690 Kbps
Writing application : XviD4PSP 7.0.346 DAILY
Writing library : Lavf57.41.100
ENCODING_INFO : MATROSKA,WEBM > MKV / H264 > X264 VBR-2P 7500kbps XHQ / AC3 > COPY
Video
ID : 1
Format : AVC
Format/Info : Advanced Video Codec
Format profile : [url=mailto:High@L4.1]High@L4.1[/url]
Format settings, CABAC : Yes
Format settings, ReFrames : 4 frames
Codec ID : V_MPEG4/ISO/AVC
Duration : 19mn 14s
Bit rate : 7 500 Kbps
Width : 1 488 pixels
Height : 1 080 pixels
Display aspect ratio : 1.374
Frame rate mode : Constant
Frame rate : 25.000 fps
Color space : YUV
Chroma subsampling : 4:2:0
Bit depth : 8 bits
Scan type : MBAFF
Bits/(Pixel*Frame) : 0.187
Stream size : 1 011 MiB (96%)
Writing library : x264 core 148 r2744M b97ae06
Encoding settings : cabac=1 / ref=4 / deblock=1:-3:-3 / analyse=0x3:0x113 / me=umh / subme=9 / psy=1 / psy_rd=1.05:0.10 / mixed_ref=1 / me_range=24 / chroma_me=1 / trellis=2 / 8x8dct=1 / cqm=0 / deadzone=21,11 / fast_pskip=0 / chroma_qp_offset=-3 / threads=5 / lookahead_threads=1 / sliced_threads=0 / nr=0 / decimate=1 / interlaced=tff / bluray_compat=0 / constrained_intra=0 / bframes=6 / b_pyramid=2 / b_adapt=2 / b_bias=0 / direct=2 / weightb=1 / open_gop=0 / weightp=0 / keyint=250 / keyint_min=25 / scenecut=40 / intra_refresh=0 / rc=2pass / mbtree=0 / bitrate=7500 / ratetol=1.0 / qcomp=0.70 / qpmin=3 / qpmax=69 / qpstep=4 / cplxblur=20.0 / qblur=0.5 / ip_ratio=1.40 / pb_ratio=1.30 / aq=2:1.00
Default : Yes
Forced : No
DURATION : 00:19:14.920000000
Audio
ID : 2
Format : AC-3
Format/Info : Audio Coding 3
Mode extension : CM (complete main)
Format settings, Endianness : Big
Codec ID : A_AC3
Duration : 19mn 14s
Bit rate mode : Constant
Bit rate : 192 Kbps
Channel(s) : 2 channels
Channel positions : Front: L R
Sampling rate : 48.0 KHz
Bit depth : 16 bits
Compression mode : Lossy
Stream size : 26.4 MiB (2%)
Default : Yes
Forced : No
       

Mediainfo:

Format                                   : Matroska
Format version : Version 4 / Version 2
File size : 982 MiB
Duration : 17mn 50s
Overall bit rate : 7 695 Kbps
Writing application : XviD4PSP 7.0.346 DAILY
Writing library : Lavf57.41.100
Video
ID : 1
Format : AVC
Format/Info : Advanced Video Codec
Format profile : [url=mailto:High@L4.1]High@L4.1[/url]
Format settings, CABAC : Yes
Format settings, ReFrames : 4 frames
Codec ID : V_MPEG4/ISO/AVC
Duration : 17mn 50s
Bit rate : 7 500 Kbps
Width : 1 488 pixels
Height : 1 080 pixels
Display aspect ratio : 1.426
Frame rate mode : Constant
Frame rate : 25.000 fps
Color space : YUV
Chroma subsampling : 4:2:0
Bit depth : 8 bits
Scan type : Progressive
Bits/(Pixel*Frame) : 0.182
Stream size : 938 MiB (96%)
Writing library : x264 core 148 r2744M b97ae06
Encoding settings : cabac=1 / ref=4 / deblock=1:-3:-3 / analyse=0x3:0x113 / me=umh / subme=9 / psy=1 / psy_rd=1.05:0.10 / mixed_ref=1 / me_range=24 / chroma_me=1 / trellis=2 / 8x8dct=1 / cqm=0 / deadzone=21,11 / fast_pskip=0 / chroma_qp_offset=-3 / threads=5 / lookahead_threads=1 / sliced_threads=0 / nr=0 / decimate=1 / interlaced=0 / bluray_compat=0 / constrained_intra=0 / bframes=6 / b_pyramid=2 / b_adapt=2 / b_bias=0 / direct=2 / weightb=1 / open_gop=0 / weightp=2 / keyint=250 / keyint_min=25 / scenecut=40 / intra_refresh=0 / rc=2pass / mbtree=0 / bitrate=7500 / ratetol=1.0 / qcomp=0.70 / qpmin=3 / qpmax=69 / qpstep=4 / cplxblur=20.0 / qblur=0.5 / ip_ratio=1.40 / pb_ratio=1.30 / aq=2:1.00
Default : Yes
Forced : No
DURATION : 00:17:50.600000000
Audio
ID : 2
Format : AC-3
Format/Info : Audio Coding 3
Mode extension : CM (complete main)
Format settings, Endianness : Big
Codec ID : A_AC3
Duration : 17mn 50s
Bit rate mode : Constant
Bit rate : 192 Kbps
Channel(s) : 2 channels
Channel positions : Front: L R
Sampling rate : 48.0 KHz
Bit depth : 16 bits
Compression mode : Lossy
Stream size : 24.5 MiB (2%)
Default : Yes
Forced : No
Скриншоты:
       
Вне форума [Профиль] [ЛС]
Похожие темы
Форум Тема Автор Торрент Отв. Посл. сообщение
./templates/default/images/folder_dl.gif Архив Multisim & Ultiboard (Circuit Design Suite) PowerPro 12.0.1 [Английский + Русский] Omen
0 | 1

1 | 820

1

2016-04-27 22:02
Dronkom Последнее
./templates/default/images/folder_dl.gif Архив doPDF 7.3 build 391 [Multi/Русский] UndegraundMen
0 | 1

0 | 467

11

2013-05-12 00:03
UndegraundMen Последнее
./templates/default/images/folder_dl.gif Эротические игры Virtual Date Girls - Русские версии [L] [RUS] (2014) (1.0) Omen
1 | 0

0 | 3180

59

2014-03-25 20:00
Omen Последнее
./templates/default/images/folder_dl.gif ЖЗЛ. Биографии. Мемуары. Историография. Беклемишевъ Н.Н. / Беклемишев Н.Н. - О русско-японской войнъ на моръ / О русско-японской войне на море [1907, PDF, RUS] Omen
1 | 0

0 | 388

3

2016-08-19 01:00
Omen Последнее
Показать сообщения:    
Ответить на тему

Текущее время: Сегодня 15:31

Часовой пояс: GMT + 3



Вы не можете начинать темы
Вы не можете отвечать на сообщения
Вы не можете редактировать свои сообщения
Вы не можете удалять свои сообщения
Вы не можете голосовать в опросах
Вы не можете прикреплять файлы к сообщениям
Вы не можете скачивать файлы