Сегодня идет свободное скачивание без начисления Download

Терем мухи (Сергей Меринов) [2013, Россия, музыкальный мультфильм, сказка, WEBRip-AVC] из цикла "Гора Самоцветов"

Ответить на тему
 
Автор
Сообщение

Omen ®

Стаж: 6 лет 2 месяца

Сообщений: 184294

Торрент-статистика

Пост 07-Янв-2017 01:00

[Цитировать]

Терем мухи
Страна: Россия
Жанр: музыкальный мультфильм, сказка
Продолжительность: 00:13:16
Год выпуска: 2013
Режиссёр: Сергей Меринов
Поёт: Николай Массальский
Описание: Музыкальная вариация известной сказки про Теремок.
Упал у мужика с телеги пустой горшок и поселилась в том горшке Муха Горюха. Следом подтянулись Вошь Поползуха, Блоха Побредуха и Комар Долгоногий, а затем и более крупные гости пожаловали...
Качество: WEBRip-AVC
Формат: MP4
Видео: 1383 kbps, 1280х720 (16:9), 25.000 fps, AVC (High@L3.1)
Аудио: 192 kbps, 44.1 kHz, 2 channels, AAC (LC)
Субтитры: отсутствуют

Подробные технические данные

GeneralComplete name : Терем мухи (2013).mp4Format : MPEG-4Format profile : Base Media / Version 2Codec ID : mp42File size : 150 MiBDuration : 13mn 16sOverall bit rate mode : VariableOverall bit rate : 1 578 KbpsEncoded date : UTC 2015-12-10 21:10:00Tagged date : UTC 2015-12-10 21:10:00gsst : 0gstd : 796048
VideoID : 1Format : AVCFormat/Info : Advanced Video CodecFormat profile : High@L3.1Format settings, CABAC : YesFormat settings, ReFrames : 1 frameFormat settings, GOP : M=1, N=60Codec ID : avc1Codec ID/Info : Advanced Video CodingDuration : 13mn 16sBit rate : 1 383 KbpsMaximum bit rate : 5 288 KbpsWidth : 1 280 pixelsHeight : 720 pixelsDisplay aspect ratio : 16:9Frame rate mode : ConstantFrame rate : 25.000 fpsColor space : YUVChroma subsampling : 4:2:0Bit depth : 8 bitsScan type : ProgressiveBits/(Pixel*Frame) : 0.060Stream size : 131 MiB (88%)Tagged date : UTC 2015-12-10 21:10:09Color primaries : BT.709Transfer characteristics : BT.709Matrix coefficients : BT.709
AudioID : 2Format : AACFormat/Info : Advanced Audio CodecFormat profile : LCCodec ID : 40Duration : 13mn 16sBit rate mode : VariableBit rate : 192 KbpsMaximum bit rate : 201 KbpsChannel(s) : 2 channelsChannel positions : Front: L RSampling rate : 44.1 KHzCompression mode : LossyStream size : 18.2 MiB (12%)Title : IsoMedia File Produced by Google, 5-11-2011Encoded date : UTC 2015-12-10 21:10:06Tagged date : UTC 2015-12-10 21:10:09

Скриншоты

Вне форума [Профиль] [ЛС]
Показать сообщения:    
Ответить на тему

Текущее время: Сегодня 14:41

Часовой пояс: GMT + 3



Вы не можете начинать темы
Вы не можете отвечать на сообщения
Вы не можете редактировать свои сообщения
Вы не можете удалять свои сообщения
Вы не можете голосовать в опросах
Вы не можете прикреплять файлы к сообщениям
Вы не можете скачивать файлы