Сегодня идет свободное скачивание без начисления Download

Однажды (Владислав Байрамгулов) [2013, Россия, мультфильм, сказка, WEBRip-AVC] из цикла "Гора Самоцветов"

Ответить на тему
 
Автор
Сообщение

Omen ®

Стаж: 6 лет 2 месяца

Сообщений: 184294

Торрент-статистика

Пост 05-Янв-2017 01:00

[Цитировать]

Однажды
Страна: Россия
Жанр: мультфильм, сказка
Продолжительность: 00:13:03
Год выпуска: 2013
Режиссёр: Владислав Байрамгулов
Текст читает: Василий Стоноженко
Описание: По мотивам башкирской сказки.
Однажды жил великан - дэв. Он грабил всех, кто ему встречался, а награбленное нёс в свою пещеру, где ждала его жена. Но вот однажды повстречались ему старик и старуха, у которых и взять-то было нечего...
Качество: WEBRip-AVC
Формат: MP4
Видео: 1118 kbps, 1280х720 (16:9), 25.000 fps, AVC (High@L3.1)
Аудио: 192 kbps, 44.1 kHz, 2 channels, AAC (LC)
Субтитры: отсутствуют

Подробные технические данные

GeneralComplete name : Однажды (2013).mp4Format : MPEG-4Format profile : Base Media / Version 2Codec ID : mp42File size : 122 MiBDuration : 13mn 3sOverall bit rate mode : VariableOverall bit rate : 1 312 KbpsEncoded date : UTC 2015-06-15 03:05:34Tagged date : UTC 2015-06-15 03:05:34gsst : 0gstd : 783045
VideoID : 1Format : AVCFormat/Info : Advanced Video CodecFormat profile : High@L3.1Format settings, CABAC : YesFormat settings, ReFrames : 1 frameFormat settings, GOP : M=1, N=60Codec ID : avc1Codec ID/Info : Advanced Video CodingDuration : 13mn 3sBit rate : 1 118 KbpsMaximum bit rate : 7 321 KbpsWidth : 1 280 pixelsHeight : 720 pixelsDisplay aspect ratio : 16:9Frame rate mode : ConstantFrame rate : 25.000 fpsColor space : YUVChroma subsampling : 4:2:0Bit depth : 8 bitsScan type : ProgressiveBits/(Pixel*Frame) : 0.049Stream size : 104 MiB (85%)Tagged date : UTC 2015-06-15 03:05:38
AudioID : 2Format : AACFormat/Info : Advanced Audio CodecFormat profile : LCCodec ID : 40Duration : 13mn 3sBit rate mode : VariableBit rate : 192 KbpsMaximum bit rate : 202 KbpsChannel(s) : 2 channelsChannel positions : Front: L RSampling rate : 44.1 KHzCompression mode : LossyStream size : 17.9 MiB (15%)Title : IsoMedia File Produced by Google, 5-11-2011Encoded date : UTC 2015-06-15 03:05:36Tagged date : UTC 2015-06-15 03:05:38

Скриншоты

Вне форума [Профиль] [ЛС]
Показать сообщения:    
Ответить на тему

Текущее время: Сегодня 15:37

Часовой пояс: GMT + 3



Вы не можете начинать темы
Вы не можете отвечать на сообщения
Вы не можете редактировать свои сообщения
Вы не можете удалять свои сообщения
Вы не можете голосовать в опросах
Вы не можете прикреплять файлы к сообщениям
Вы не можете скачивать файлы