Сегодня идет свободное скачивание без начисления Download

Налим Малиныч (Степан Бирюков) [2015, Россия, мультфильм, сказка, экранизация, WEBRip-AVC] из цикла "Гора Самоцветов"

Ответить на тему
 
Автор
Сообщение

Omen ®

Стаж: 6 лет 2 месяца

Сообщений: 184294

Торрент-статистика

Пост 03-Янв-2017 01:00

[Цитировать]

Налим Малиныч
Страна: Россия
Жанр: мультфильм, сказка, экранизация
Продолжительность: 00:13:30
Год выпуска: 2015
Режиссёр: Степан Бирюков
Текст читает: Сергей Варакин
Описание: По мотивам сказок Степана Писахова.
История про то, как Сеня Малина однажды здоровущего налима поймал. Стал тот налим у него заместо собаки учёной. Но тут полицейский урядник захотел у Сени налима отнять...
Доп. информация: Приз в номинации "Экранизация литературных произведений" - Кинофестиваль "Отцы и дети" (2016)
Качество: WEBRip-AVC
Формат: MP4
Видео: 1944 kbps, 1280х720 (16:9), 25.000 fps, AVC (High@L3.1)
Аудио: 192 kbps, 44.1 kHz, 2 channels, AAC (LC)
Субтитры: отсутствуют

Подробные технические данные

GeneralComplete name : Налим Малиныч (2015).mp4Format : MPEG-4Format profile : Base Media / Version 2Codec ID : mp42File size : 206 MiBDuration : 13mn 30sOverall bit rate mode : VariableOverall bit rate : 2 138 KbpsEncoded date : UTC 2016-03-26 10:32:24Tagged date : UTC 2016-03-26 10:32:24gsst : 0gstd : 810050
VideoID : 1Format : AVCFormat/Info : Advanced Video CodecFormat profile : High@L3.1Format settings, CABAC : YesFormat settings, ReFrames : 1 frameFormat settings, GOP : M=1, N=60Codec ID : avc1Codec ID/Info : Advanced Video CodingDuration : 13mn 30sBit rate : 1 944 KbpsMaximum bit rate : 10.2 MbpsWidth : 1 280 pixelsHeight : 720 pixelsDisplay aspect ratio : 16:9Frame rate mode : ConstantFrame rate : 25.000 fpsColor space : YUVChroma subsampling : 4:2:0Bit depth : 8 bitsScan type : ProgressiveBits/(Pixel*Frame) : 0.084Stream size : 188 MiB (91%)Tagged date : UTC 2016-03-26 10:32:35Color primaries : BT.709Transfer characteristics : BT.709Matrix coefficients : BT.709
AudioID : 2Format : AACFormat/Info : Advanced Audio CodecFormat profile : LCCodec ID : 40Duration : 13mn 30sBit rate mode : VariableBit rate : 192 KbpsMaximum bit rate : 202 KbpsChannel(s) : 2 channelsChannel positions : Front: L RSampling rate : 44.1 KHzCompression mode : LossyStream size : 18.5 MiB (9%)Title : IsoMedia File Produced by Google, 5-11-2011Encoded date : UTC 2016-03-26 10:32:31Tagged date : UTC 2016-03-26 10:32:35

Скриншоты

Вне форума [Профиль] [ЛС]
Показать сообщения:    
Ответить на тему

Текущее время: Сегодня 10:36

Часовой пояс: GMT + 3



Вы не можете начинать темы
Вы не можете отвечать на сообщения
Вы не можете редактировать свои сообщения
Вы не можете удалять свои сообщения
Вы не можете голосовать в опросах
Вы не можете прикреплять файлы к сообщениям
Вы не можете скачивать файлы