Сегодня идет свободное скачивание без начисления Download

Огник (Евгений Михельсон) [1976, Туркмения, мультфильм, TVRip]

Ответить на тему
 
Автор
Сообщение

Omen ®

Стаж: 6 лет 2 месяца

Сообщений: 184294

Торрент-статистика

Пост 20-Дек-2016 01:00

[Цитировать]

Огник
Страна: СССР
Жанр: мультфильм
Продолжительность: 00:09:45
Год выпуска: 1976
Русские субтитры: нет
Режиссёр: Евгений Михельсон
Описание: Эта история о маленьком рыжем жеребёнке, который недавно родился, и ему только предстоит стать первым другом и помощником человека. И, как выясняется, для этого совсем не обязательно быть ни самым сильным, ни самым быстрым, ни самым ловким. Главное - быть добрым, и тогда для лучшего друга ты всегда будешь самым-самым.
Доп. информация: ТУРКМЕНТЕЛЕФИЛЬМ
Сценарист: Лора Степанская
Оператор: Халмамед Мурзаев
Композитор: Б. Исаков
Семпл: http://multi-up.com/1131690
Качество: TVRip
Формат: AVI
Видео: 1794 kbps, 704х544 (1.294), 25.000 fps, MPEG-4 Visual (XviD)
Аудио: Русский, 128 kbps, 44.1 kHz, 2 channels, MPEG Audio (MP3)
Субтитры: Отсутствуют

Подробные технические данные

ОбщееПолное имя : D:\Огник (1976).aviФормат : AVIФормат/Информация : Audio Video InterleaveРазмер файла : 135 МбайтПродолжительность : 9 м. 45 с.Общий поток : 1931 Кбит/секПрограмма кодирования : MEncoder sherpya-r37853+g6d7f566-5.3.1Библиотека кодирования : VirtualDub build 35491/release
ВидеоИдентификатор : 0Формат : MPEG-4 VisualПрофиль формата : Advanced Simple@L4Параметр BVOP формата : 2Параметр QPel формата : НетПараметр GMC формата : Без точки переходаПараметр матрицы формата : Default (H.263)Идентификатор кодека : XVIDИдентификатор кодека/Подсказка : XviDПродолжительность : 9 м. 45 с.Битрейт : 1794 Кбит/секШирина : 704 пикселяВысота : 544 пикселяСоотношение сторон : 1,294Частота кадров : 25,000 кадров/секЦветовое пространство : YUVСубдискретизация насыщенности : 4:2:0Битовая глубина : 8 битТип развёртки : ПрогрессивнаяМетод сжатия : С потерямиБит/(Пиксели*Кадры) : 0.187Размер потока : 125 Мбайт (93%)Библиотека кодирования : XviD 73
АудиоИдентификатор : 1Формат : MPEG AudioВерсия формата : Version 1Профиль формата : Layer 3Режим : Joint stereoРасширение режима : MS StereoИдентификатор кодека : 55Идентификатор кодека/Подсказка : MP3Продолжительность : 9 м. 45 с.Вид битрейта : ПостоянныйБитрейт : 128 Кбит/секКаналы : 2 каналаЧастота : 44,1 КГцМетод сжатия : С потерямиРазмер потока : 8,93 Мбайт (7%)Выравнивание : Разделение по промежуткамПродолжительность промежутка : 40 мс. (1,00 видеокадр)Время предзагрузки промежутка : 500 мс.

Скриншоты

Вне форума [Профиль] [ЛС]
Показать сообщения:    
Ответить на тему

Текущее время: Сегодня 11:02

Часовой пояс: GMT + 3



Вы не можете начинать темы
Вы не можете отвечать на сообщения
Вы не можете редактировать свои сообщения
Вы не можете удалять свои сообщения
Вы не можете голосовать в опросах
Вы не можете прикреплять файлы к сообщениям
Вы не можете скачивать файлы