Сегодня идет свободное скачивание без начисления Download

Великан попал в беду (Кто стучится в дверь ко мне?) / Hiiglane hädas (Kes koputab mu uksele?) / Giant (Who\'s knocking at my door?) (Рихо Луусе / Riho Luuse) [1993, Эстония, мультфильм, WEBRip]

Ответить на тему
 
Автор
Сообщение

Omen ®

Стаж: 6 лет 2 месяца

Сообщений: 184294

Торрент-статистика

Пост 12-Дек-2016 01:00

[Цитировать]

Великан попал в беду (Кто стучится в дверь ко мне?) / Hiiglane hädas (Kes koputab mu uksele?) / Giant (Who's knocking at my door?)
Страна: Эстония
Жанр: мультфильм
Продолжительность: 00:06:48
Год выпуска: 1993
Режиссёр: Рихо Луусе / Riho Luuse
Описание: Однажды, шагая по лесу, великан занозил ногу. Он отправился за помощью в избушку, где жили Белая Волшебница и лесовичок Муфтик.
Доп. информация: "Кто стучится в дверь ко мне?" - серия из 11 мультфильмов, над которой работали 9 режиссёров (Рейн Раамат, Мари-Лиис Моонвальд, Лия Саккос, Эло Полендик, Ану Нукки, Эда Кург, Неле Тихмяэ, Рихо Луусе, Райт Тийдус)
Качество: WEBRip
Формат: AVI
Видео: 2091 kbps, 624х480 (4:3), 24.000 fps, MPEG-4 Visual (XviD)
Аудио: 128 kbps, 44.1 kHz, 2 channels, MPEG Audio (MP3)
Субтитры: отсутствуют

Подробные технические данные

GeneralComplete name : Kes koputab mu uksele. Hiiglane hadas.aviFormat : AVIFormat/Info : Audio Video InterleaveFile size : 109 MiBDuration : 6mn 48sOverall bit rate : 2 232 KbpsWriting library : VirtualDub build 35491/release
VideoID : 0Format : MPEG-4 VisualFormat profile : Advanced Simple@L4Format settings, BVOP : 2Format settings, QPel : NoFormat settings, GMC : No warppointsFormat settings, Matrix : Default (H.263)Codec ID : XVIDCodec ID/Hint : XviDDuration : 6mn 48sBit rate : 2 091 KbpsWidth : 624 pixelsHeight : 480 pixelsDisplay aspect ratio : 4:3Frame rate : 25.000 fpsColor space : YUVChroma subsampling : 4:2:0Bit depth : 8 bitsScan type : ProgressiveCompression mode : LossyBits/(Pixel*Frame) : 0.279Stream size : 102 MiB (94%)Writing library : XviD 64
AudioID : 1Format : MPEG AudioFormat version : Version 1Format profile : Layer 3Mode : Joint stereoMode extension : MS StereoCodec ID : 55Codec ID/Hint : MP3Duration : 6mn 48sBit rate mode : ConstantBit rate : 128 KbpsChannel(s) : 2 channelsSampling rate : 44.1 KHzCompression mode : LossyStream size : 6.24 MiB (6%)Alignment : Aligned on interleavesInterleave, duration : 26 ms (0.65 video frame)Interleave, preload duration : 522 msWriting library : LAME3.99

Скриншоты

Вне форума [Профиль] [ЛС]
Похожие темы
Форум Тема Автор Торрент Отв. Посл. сообщение
./templates/default/images/folder_dl.gif Зарубежное кино Великий уравнитель / The Equalizer (Антуан Фукуа / Antoine Fuqua) [2014, США / Columbia Pictures, боевик, триллер, криминал, BDRip] Dub + AVO (Есарев) + Original Eng + Sub Eng Omen
1 | 0

0 | 461

6

2014-12-14 02:25
Omen Последнее
./templates/default/images/folder_dl.gif Зарубежное кино Интерстеллар / Interstellar (Кристофер Нолан / Christopher Nolan) [2014, США, Великобритания, фантастика, боевик, детектив, приключения, BDRip 1080p] Dub + MVO (Омикрон) + AVO (Сербин) + AVO (Живов) + Sub Rus, Eng + Original Eng Omen
1 | 0

0 | 464

2

2015-11-27 12:56
Omen Последнее
./templates/default/images/folder_dl.gif Новинки (HD|DVD|BD|WEB|TV|SAT|PDTV|-Rip) Великий уравнитель 2 / The Equalizer 2 (Антуан Фукуа) [2018, боевик, триллер, криминал, WEB-DLRip] DUB | iTunes Theseus
1 | 0

0 | 479

16

2018-10-30 23:14
Theseus Последнее
Показать сообщения:    
Ответить на тему

Текущее время: Сегодня 10:36

Часовой пояс: GMT + 3



Вы не можете начинать темы
Вы не можете отвечать на сообщения
Вы не можете редактировать свои сообщения
Вы не можете удалять свои сообщения
Вы не можете голосовать в опросах
Вы не можете прикреплять файлы к сообщениям
Вы не можете скачивать файлы