Сегодня идет свободное скачивание без начисления Download

Можно и нельзя (Лев Мильчин) [1964, СССР, Рисованный мультфильм, WEBRip]

Ответить на тему
 
Автор
Сообщение

Omen ®

Стаж: 6 лет 2 месяца

Сообщений: 184294

Торрент-статистика

Пост 02-Дек-2016 01:00

[Цитировать]

Можно и нельзя
Страна: СССР
Жанр: Рисованный мультфильм
Продолжительность: 00:18:27
Год выпуска: 1964
Русские субтитры: нет
Режиссёр: Лев Мильчин
Роли озвучивали: Клара Румянова, Елена Понсова, Александр Граве
Описание: Два волшебных человечка Можно и Нельзя помогают Малышу, который остается дома один, познакомиться с окружающим миром и понять, что можно делать и чего – нельзя…
Доп. информация: "Союзмультфильм"
Художники: Г.Баринов,Б.Бутаков,В.Карп,М.Мотрук
Композитор: М.Вайнберг
Оператор: М.Друян
Монтаж: М.Кякшт
Сценарий: Е.Агранович
Качество: WEBRip
Формат: AVI
Видео: 640x480 (1.33:1), 25 fps, XviD 65 ~2098 kbps avg, 0.27 bit/pixel
Аудио: 48 kHz, AC3 Dolby Digital, 1/0 (C) ch, ~128.00 kbps avg
Субтитры: нет

Подробные технические данные

Format : AVIFormat/Info : Audio Video InterleaveFile size : 295 MiBDuration : 18mn 27sOverall bit rate : 2 236 KbpsWriting application : VirtualDubModRus 1.5.10.2 (build 2542/release)Copyright : Rutracker.orgComment : WEBRip by dvdss
VideoID : 0Format : MPEG-4 VisualFormat profile : Advanced Simple@L5Format settings, BVOP : 2Format settings, QPel : NoFormat settings, GMC : No warppointsFormat settings, Matrix : CustomCodec ID : XVIDCodec ID/Hint : XviDDuration : 18mn 27sBit rate : 2 098 KbpsWidth : 640 pixelsHeight : 480 pixelsDisplay aspect ratio : 5:4Original display aspect ratio : 4:3Frame rate : 25.000 fpsColor space : YUVChroma subsampling : 4:2:0Bit depth : 8 bitsScan type : ProgressiveCompression mode : LossyBits/(Pixel*Frame) : 0.273Stream size : 277 MiB (94%)Writing library : XviD 65
AudioID : 1Format : AC-3Format/Info : Audio Coding 3Mode extension : CM (complete main)Format settings, Endianness : BigCodec ID : 2000Duration : 18mn 27sBit rate mode : ConstantBit rate : 128 KbpsChannel(s) : 1 channelChannel positions : Front: CSampling rate : 48.0 KHzBit depth : 16 bitsCompression mode : LossyStream size : 16.9 MiB (6%)Alignment : Aligned on interleavesInterleave, duration : 40 ms (1.00 video frame)Interleave, preload duration : 512 ms

сравнение с DVDRip

Сравнение с [url=viewtopic.php?t=3799294]http:///*spam*//forum/viewtopic.php?t=3799294[/url]
Тут -- http://screenshotcomparison.com/comparison/192423/picture:1
Вне форума [Профиль] [ЛС]
Похожие темы
Форум Тема Автор Торрент Отв. Посл. сообщение
./templates/default/images/folder_dl.gif Психология, Тренинг, Саморазвитие Лора Вандеркам | Книга о потерянном времени. У вас больше возможностей, чем вы думаете (2015) [PDF, EPUB, FB2] }{@R0N
1 | 0

0 | 764

14

2018-01-06 12:11
}{@R0N Последнее
Показать сообщения:    
Ответить на тему

Текущее время: Сегодня 15:26

Часовой пояс: GMT + 3



Вы не можете начинать темы
Вы не можете отвечать на сообщения
Вы не можете редактировать свои сообщения
Вы не можете удалять свои сообщения
Вы не можете голосовать в опросах
Вы не можете прикреплять файлы к сообщениям
Вы не можете скачивать файлы