Сегодня идет свободное скачивание без начисления Download

Соперники (Роман Качанов) [1968, СССР, Кукольный мультфильм, WEBRip]

Ответить на тему
 
Автор
Сообщение

Omen ®

Стаж: 6 лет 2 месяца

Сообщений: 184294

Торрент-статистика

Пост 29-Ноя-2016 01:00

[Цитировать]

Соперники
Страна: СССР
Жанр: Кукольный мультфильм
Продолжительность: 00:15:14
Год выпуска: 1968
Русские субтитры: нет
Режиссёр: Роман Качанов
Описание: История двух молодых людей, влюбленных в одну девушку. О том, что нельзя судить по внешности - только в испытаниях проверяется преданность и храбрость.
Доп.информация:"Союзмультфильм"
Автор сценария:А. Родионов (псевдоним)
Художник-постановщик:Леонид Шварцман
Композитор:Вадим Гамалия
Мультипликаторы:Владимир Филиппов, Владимир Пузанов, Майя Бузинова, Кирилл Малянтович
Оператор:Теодор Бунимович
Качество: WEBRip
Формат: AVI
Видео: 640x480 (1.33:1), 25 fps, XviD 65 ~2094 kbps avg, 0.27 bit/pixel
Аудио: 48 kHz, AC3 Dolby Digital, 1/0 (C) ch, ~128.00 kbps avg
Субтитры: нет

Подробные технические данные

Format : AVIFormat/Info : Audio Video InterleaveFile size : 243 MiBDuration : 15mn 14sOverall bit rate : 2 232 KbpsWriting application : VirtualDubModRus 1.5.10.2 (build 2542/release)Copyright : Rutracker.orgComment : WEBRip by dvdss
VideoID : 0Format : MPEG-4 VisualFormat profile : Advanced Simple@L5Format settings, BVOP : 2Format settings, QPel : NoFormat settings, GMC : No warppointsFormat settings, Matrix : CustomCodec ID : XVIDCodec ID/Hint : XviDDuration : 15mn 14sBit rate : 2 095 KbpsWidth : 640 pixelsHeight : 480 pixelsDisplay aspect ratio : 5:4Original display aspect ratio : 4:3Frame rate : 25.000 fpsColor space : YUVChroma subsampling : 4:2:0Bit depth : 8 bitsScan type : ProgressiveCompression mode : LossyBits/(Pixel*Frame) : 0.273Stream size : 228 MiB (94%)Writing library : XviD 65
AudioID : 1Format : AC-3Format/Info : Audio Coding 3Mode extension : CM (complete main)Format settings, Endianness : BigCodec ID : 2000Duration : 15mn 14sBit rate mode : ConstantBit rate : 128 KbpsChannel(s) : 1 channelChannel positions : Front: CSampling rate : 48.0 KHzBit depth : 16 bitsCompression mode : LossyStream size : 13.9 MiB (6%)Alignment : Aligned on interleavesInterleave, duration : 40 ms (1.00 video frame)Interleave, preload duration : 512 ms

сравнение

Сравнение с [url=viewtopic.php?t=2316923]http:///*spam*//forum/viewtopic.php?t=2316923[/url]
Тут -- http://screenshotcomparison.com/comparison/192036/picture:1

интересные факты

Сценарий фильма Роман Качанов предложил написать своему другу Алексею Аджубею. Известный журналист и общественный деятель времён Хрущёвской «оттепели», а также зять Никиты Хрущёва Алексей Аджубей находился тогда в опале. Для Аджубея, уволенного со всех официальных должностей, написание этого сценария было не только способом самореализоваться как сценаристу, но и хорошей возможностью заработать. Однако Качанову надо было обладать большой смелостью, чтобы взять сценаристом опального друга, так как этот шаг мог навлечь и на самого Качанова, и на картину «Соперники» гнев руководства КПСС и СССР.

Скриншоты

Вне форума [Профиль] [ЛС]
Показать сообщения:    
Ответить на тему

Текущее время: Сегодня 14:59

Часовой пояс: GMT + 3



Вы не можете начинать темы
Вы не можете отвечать на сообщения
Вы не можете редактировать свои сообщения
Вы не можете удалять свои сообщения
Вы не можете голосовать в опросах
Вы не можете прикреплять файлы к сообщениям
Вы не можете скачивать файлы