Сегодня идет свободное скачивание без начисления Download

Подводные друзья / Veealused (Хейно Парс / Heino Pars) [1973, СССР, мультфильм, DVDRip] MVO

Ответить на тему
 
Автор
Сообщение

Omen ®

Стаж: 6 лет 2 месяца

Сообщений: 184294

Торрент-статистика

Пост 27-Ноя-2016 01:00

[Цитировать]

Подводные друзья / Veealused
Страна: СССР (Эстонская республика)
Жанр: мультфильм
Продолжительность: 00:15:55
Год выпуска: 1973
Перевод: Любительский (многоголосый закадровый)
Русские субтитры: нет
Режиссёр: Хейно Парс / Heino Pars
Русская озвучка: progulkin & Co
Описание: Двое мальчишек несутся по берегу в автомобиле собственного изобретения и падают с обрыва в море. Теперь у них появляется возможность познакомиться с подводными обитателями...
Доп. информация: Познавательный мультфильм от авторов серии про оператора Кыпса.
Качество: DVDRip
Формат: AVI
Видео: 1993 kbps, 704х528 (4:3), 25.000 fps, MPEG-4 (XviD)
Аудио 1 (рус): 128 kbps, 48.0 kHz, 2 channels, MPEG Audio (MP3)
Аудио 2 (эст): 128 kbps, 44.1 kHz, 2 channels, MPEG Audio (MP3)
Субтитры: отсутствуют

Подробные технические данные

GeneralComplete name : Veealused (1973).aviFormat : AVIFormat/Info : Audio Video InterleaveFile size : 258 MiBDuration : 15mn 55sOverall bit rate : 2 263 KbpsWriting application : VirtualDubMod 1.5.10.2 (build 2540/release)Writing library : VirtualDubMod build 2540/release
VideoID : 0Format : MPEG-4 VisualFormat profile : Advanced Simple@L4Format settings, BVOP : 2Format settings, QPel : NoFormat settings, GMC : No warppointsFormat settings, Matrix : Default (H.263)Codec ID : XVIDCodec ID/Hint : XviDDuration : 15mn 55sBit rate : 1 993 KbpsWidth : 704 pixelsHeight : 528 pixelsDisplay aspect ratio : 4:3Frame rate : 25.000 fpsColor space : YUVChroma subsampling : 4:2:0Bit depth : 8 bitsScan type : ProgressiveCompression mode : LossyBits/(Pixel*Frame) : 0.214Stream size : 227 MiB (88%)Writing library : XviD 64
Audio #1ID : 1Format : MPEG AudioFormat version : Version 1Format profile : Layer 3Mode : Joint stereoMode extension : MS StereoCodec ID : 55Codec ID/Hint : MP3Duration : 15mn 55sBit rate mode : ConstantBit rate : 128 KbpsChannel(s) : 2 channelsSampling rate : 48.0 KHzCompression mode : LossyStream size : 14.6 MiB (6%)Alignment : Aligned on interleavesInterleave, duration : 40 ms (1.00 video frame)Interleave, preload duration : 504 ms
Audio #2ID : 2Format : MPEG AudioFormat version : Version 1Format profile : Layer 3Codec ID : 55Codec ID/Hint : MP3Duration : 15mn 55sBit rate mode : ConstantBit rate : 128 KbpsChannel(s) : 2 channelsSampling rate : 44.1 KHzCompression mode : LossyStream size : 14.6 MiB (6%)Alignment : Split accross interleavesInterleave, duration : 40 ms (1.00 video frame)Interleave, preload duration : 500 ms

Скриншоты

Вне форума [Профиль] [ЛС]
Показать сообщения:    
Ответить на тему

Текущее время: Сегодня 10:36

Часовой пояс: GMT + 3



Вы не можете начинать темы
Вы не можете отвечать на сообщения
Вы не можете редактировать свои сообщения
Вы не можете удалять свои сообщения
Вы не можете голосовать в опросах
Вы не можете прикреплять файлы к сообщениям
Вы не можете скачивать файлы