Сегодня идет свободное скачивание без начисления Download

Три новеллы / 3 новеллы (Елена Баринова) [1986, СССР, Рисованный мультфильм, WEBRip]

Ответить на тему
 
Автор
Сообщение

Omen ®

Стаж: 6 лет 2 месяца

Сообщений: 184294

Торрент-статистика

Пост 23-Ноя-2016 01:00

[Цитировать]

Три новеллы / 3 новеллы
Страна: СССР
Жанр: Рисованный мультфильм
Продолжительность: 00:09:39
Год выпуска: 1986
Русские субтитры: нет
Режиссёр: Елена Баринова
Описание: Три истории о том, как горожанам необходима природа.
Мультфильм содержит огромное количество тщательно выполненной анимации, в некоторых сценах стилизованной под компьютерную графику.
Доп. информация:
Cценарист: Федор Хитрук.
Художник-постановщик: Николай Кошкин.
Художники: Ирина Собянина, Ольга Боголюбова, Э. Антушева, Виктор Чугуевский, Елена Боголюбова.
Аниматоры: Юрий Кулаков, Юрий Кузюрин, Вячеслав Каюков, Тенно-Пент Соостер, Юрий Мещеряков.
Качество: WEBRip
Формат: AVI
Видео: 640x480 (1.33:1), 25 fps, XviD build 50 ~1099 kbps avg, 0.14 bit/pixel
Аудио: 32 kHz, MPEG Layer 3, 2 ch, ~96.00 kbps avg
Субтитры: нет

Подробные технические данные

Format : AVIFormat/Info : Audio Video InterleaveFile size : 83.3 MiBDuration : 9mn 39sOverall bit rate : 1 206 KbpsWriting application : VirtualDubMod 1.5.10.2 (build 2540/release)Writing library : VirtualDubMod build 2540/release
VideoID : 0Format : MPEG-4 VisualFormat profile : Advanced Simple@L5Format settings, BVOP : 1Format settings, QPel : NoFormat settings, GMC : No warppointsFormat settings, Matrix : Default (MPEG)Codec ID : XVIDCodec ID/Hint : XviDDuration : 9mn 39sBit rate : 1 100 KbpsWidth : 640 pixelsHeight : 480 pixelsDisplay aspect ratio : 4:3Frame rate : 25.000 fpsColor space : YUVChroma subsampling : 4:2:0Bit depth : 8 bitsScan type : ProgressiveCompression mode : LossyBits/(Pixel*Frame) : 0.143Stream size : 76.0 MiB (91%)Writing library : XviD 1.2.1 (UTC 2008-12-04)
AudioID : 1Format : MPEG AudioFormat version : Version 1Format profile : Layer 3Codec ID : 55Codec ID/Hint : MP3Duration : 9mn 39sBit rate mode : ConstantBit rate : 96.0 KbpsChannel(s) : 2 channelsSampling rate : 32.0 KHzCompression mode : LossyStream size : 6.63 MiB (8%)Alignment : Aligned on interleavesInterleave, duration : 40 ms (1.00 video frame)Interleave, preload duration : 504 msWriting library : LAME3.98rEncoding settings : -m s -V 4 -q 0 -lowpass 15.1 -b 96

сравнение

Сравнение с [url=viewtopic.php?t=993787]http:///*spam*//forum/viewtopic.php?t=993787[/url]
Тут -- http://screenshotcomparison.com/comparison/191529/picture:2

сюжет мультфильма

Новелла №1 - Пчела летит к красивым цветам, но везде натыкается на прозрачную преграду. Цветы меняются, изображение отодвигается и зрителю становится ясно, что это большой экран на стене высокого здания в огромном современном городе.
Новелла№2 - Два мальчика разного возраста (возможно, братья) стоят у перил, жуют жвачку и смотрят на проезжающий транспорт. Они представляют себя за рулём этих машин и самолёта. И вдруг они видят корову! Они очень удивлены, потому что живой коровы они никогда не видели!
Новелла№3 - На одной из площадей современного города рабочие плитами закладывают землю и возводят странное сооружение с электронной начинкой, отдалённо похожее на большое искусственное дерево. Приезжает комиссия, играет оркестр. Человек в строгом костюме зачитывает речь и нажимает на кнопку. Сооружение начинает светиться, но быстро перестаёт работать, потому что из всех щелей вылезают живые растения.

Скриншоты

Вне форума [Профиль] [ЛС]
Показать сообщения:    
Ответить на тему

Текущее время: Сегодня 10:59

Часовой пояс: GMT + 3



Вы не можете начинать темы
Вы не можете отвечать на сообщения
Вы не можете редактировать свои сообщения
Вы не можете удалять свои сообщения
Вы не можете голосовать в опросах
Вы не можете прикреплять файлы к сообщениям
Вы не можете скачивать файлы