Сегодня идет свободное скачивание без начисления Download

Битва экстрасенсов (2016.09.10) DVB (сезон 17, выпуск 2)

Ответить на тему
 
Автор
Сообщение

}{@R0N ®

Стаж: 3 года 2 месяца

Сообщений: 7399

Торрент-статистика

Пост 10-Сен-2016 23:21

[Цитировать]

Битва экстрасенсов (2016.09.10) DVB (сезон 17, выпуск 2) - Телекомпания: ТНТ
Жанр: Реалити Шоу
Ведущий: Марат Башаров
Описание:
С 3 сентября на ТНТ стартует долгожданный 17-й сезон «Битвы экстрасенсов» — самого мистического, непредсказуемого и загадочного проекта российского ТВ. Масштабный кастинг, новые яркие участники и высокие технологии в мире экстрасенсорики. Новый сезон обещает стать самым необычным и удивительным в истории шоу. «Мне бы очень хотелось, чтобы в новом сезоне экстрасенсы поменьше обращали бы внимание на свою самореализацию, а больше помогали людям. Ведь каждый сезон к нам обращаются те, кто действительно ждет помощи. И это, по-моему, для людей со сверхспособностями должно быть приоритетным!», — Марат Башаров, ведущий проекта.
Продолжительность: ~ 01:14:48
Качество видео: DVB
Субтитры: Отсутствуют
Видео: MPEG 2, 720x576 (4:3), 25.000 fps, 15.0 Mbps (0.358 bit/pixel)
Аудио: MP2, 48.0 KHz, 2 ch, 192 Kbps, CBR

Mediainfo:

Код:
Общее
Идентификатор                            : 1 (0x1)
Полное имя                               : D:\[1]\Битва экстрасенсов\Битва экстрасенсов. Сезон 17. Выпуск 02 (2016.09.10).ts
Формат                                   : MPEG-TS
Размер файла                             : 2,15 Гбайт
Продолжительность                        : 1 ч. 14 м.
Режим общего битрейта                    : Переменный
Общий поток                              : 4111 Кбит/сек
Видео
Идентификатор                            : 770 (0x302)
Идентификатор меню                       : 768 (0x300)
Формат                                   : MPEG Video
Версия формата                           : Version 2
Профиль формата                          : Main@Main
Параметр BVOP формата                    : Да
Параметр матрицы формата                 : Выборочная
Параметр GOP формата                     : Variable
Идентификатор кодека                     : 2
Продолжительность                        : 1 ч. 14 м.
Вид битрейта                             : Переменный
Битрейт                                  : 3714 Кбит/сек
Максимальный битрейт                     : 15,0 Мбит/сек
Ширина                                   : 720 пикселей
Высота                                   : 576 пикселей
Соотношение сторон                       : 4:3
Частота кадров                           : 25,000 кадров/сек
Стандарт вещания                         : PAL
Цветовое пространство                    : YUV
Субдискретизация насыщенности            : 4:2:0
Битовая глубина                          : 8 бит
Метод сжатия                             : С потерями
Бит/(Пиксели*Кадры)                      : 0.358
Временной код первого кадра              : 00:00:00:00
Оригинал временного кода                 : Group of pictures header
GOP, открыто/закрыто                     : Открыто
Размер потока                            : 1,94 Гбайт (90%)
Аудио
Идентификатор                            : 402 (0x192)
Идентификатор меню                       : 768 (0x300)
Формат                                   : MPEG Audio
Версия формата                           : Version 1
Профиль формата                          : Layer 2
Идентификатор кодека                     : 3
Продолжительность                        : 1 ч. 14 м.
Вид битрейта                             : Постоянный
Битрейт                                  : 192 Кбит/сек
Каналы                                   : 2 канала
Частота                                  : 48,0 КГц
Метод сжатия                             : С потерями
Задержка видео                           : 11 мс.
Размер потока                            : 103 Мбайт (5%)
Язык                                     : Russian
Скриншоты:
       
Вне форума [Профиль] [ЛС]
Похожие темы
Форум Тема Автор Торрент Отв. Посл. сообщение
./templates/default/images/folder_dl.gif Фантастика, фэнтези, ужасы, мистика Алекс Орлов | Битва за реальность (2018) [FB2] }{@R0N
1 | 0

0 | 256

1

2018-08-21 21:41
}{@R0N Последнее
Показать сообщения:    
Ответить на тему

Текущее время: Сегодня 00:22

Часовой пояс: GMT + 3



Вы не можете начинать темы
Вы не можете отвечать на сообщения
Вы не можете редактировать свои сообщения
Вы не можете удалять свои сообщения
Вы не можете голосовать в опросах
Вы не можете прикреплять файлы к сообщениям
Вы не можете скачивать файлы