Сегодня идет свободное скачивание без начисления Download

Битва экстрасенсов. Сезон 16. Выпуск 19 (2016.02.06) SATRip

Ответить на тему
 
Автор
Сообщение

}{@R0N ®

Стаж: 3 года 2 месяца

Сообщений: 7399

Торрент-статистика

Пост 06-Фев-2016 22:13

[Цитировать]

Битва экстрасенсов. Сезон 16. Выпуск 19 (2016.02.06) - Телекомпания: ТНТ
Жанр: Реалити Шоу
Ведущий: Марат Башаров
Описание:
19 сентября на ТНТ стартует 16-й сезон «Битвы экстрасенсов». В этом году среди желающих попасть на 16-й сезон «Битвы экстрасенсов» необычных людей было больше, чем когда-либо. Уже сейчас понятно: 16-я «Битва» будет ну очень запоминающейся! Их создатели пока держат в строжайшем секрете. Съемки уже идут, и экстрасенсы не должны узнать заранее, что для них готовят. Но определенно сюрпризов будет много. Раскроем только одну тайну: самое любимое испытание первой серии – поиск человека в багажнике – на этот раз будет необычным. Создатели изменили одно правило. Какое именно – узнаете 19 сентября в 20.00 на ТНТ!
Релиз от: Taz
Продолжительность: ~ 01:08:46
Качество видео: SATRip
Видео: MPEG4, XviD, 720x400 (16:9), 25.000 fps, 1 800 Kbps (0.250 bit/pixel)
Аудио: MP3, 48.0 KHz, 2 ch, 128 Kbps, CBR

Mediainfo:

Код:
Формат                                   : AVI
Формат/Информация                        : Audio Video Interleave
Размер файла                             : 953 Мбайт
Продолжительность                        : 1 ч. 8 м.
Общий поток                              : 1938 Кбит/сек
Программа кодирования                    : VirtualDubMod 1.5.10.3 | [url=http://www.virtualdub-fr.org]www.virtualdub-fr.org[/url] || (build 2550/release)
Библиотека кодирования                   : VirtualDubMod build 2550/release
Видео
Идентификатор                            : 0
Формат                                   : MPEG-4 Visual
Профиль формата                          : Advanced Simple@L5
Параметр BVOP формата                    : 2
Параметр QPel формата                    : Нет
Параметр GMC формата                     : Без точки перехода
Параметр матрицы формата                 : Default (H.263)
Идентификатор кодека                     : XVID
Идентификатор кодека/Подсказка           : XviD
Продолжительность                        : 1 ч. 8 м.
Битрейт                                  : 1800 Кбит/сек
Ширина                                   : 720 пикселей
Высота                                   : 400 пикселей
Соотношение сторон                       : 16:9
Частота кадров                           : 25,000 кадров/сек
Цветовое пространство                    : YUV
Субдискретизация насыщенности            : 4:2:0
Битовая глубина                          : 8 бит
Тип развёртки                            : Прогрессивная
Метод сжатия                             : С потерями
Бит/(Пиксели*Кадры)                      : 0.250
Размер потока                            : 885 Мбайт (93%)
Библиотека кодирования                   : XviD 1.2.1 (UTC 2008-12-04)
Аудио
Идентификатор                            : 1
Формат                                   : MPEG Audio
Версия формата                           : Version 1
Профиль формата                          : Layer 3
Режим                                    : Joint stereo
Расширение режима                        : MS Stereo
Идентификатор кодека                     : 55
Идентификатор кодека/Подсказка           : MP3
Продолжительность                        : 1 ч. 8 м.
Вид битрейта                             : Постоянный
Битрейт                                  : 128 Кбит/сек
Каналы                                   : 2 канала
Частота                                  : 48,0 КГц
Метод сжатия                             : С потерями
Размер потока                            : 63,0 Мбайт (7%)
Выравнивание                             : Соединение по промежуткам
Продолжительность промежутка             : 40  мс. (1,00 видеокадр)
Время предзагрузки промежутка            : 504  мс.
Библиотека кодирования                   : LAME3.99r
Настройки программы                      : -m j -V 4 -q 9 -lowpass 17 -b 128
Скриншоты:        
Вне форума [Профиль] [ЛС]
Похожие темы
Форум Тема Автор Торрент Отв. Посл. сообщение
./templates/default/images/folder_dl.gif Фантастика, фэнтези, ужасы, мистика Алекс Орлов | Битва за реальность (2018) [FB2] }{@R0N
1 | 0

0 | 256

1

2018-08-21 21:41
}{@R0N Последнее
Показать сообщения:    
Ответить на тему

Текущее время: Сегодня 00:44

Часовой пояс: GMT + 3



Вы не можете начинать темы
Вы не можете отвечать на сообщения
Вы не можете редактировать свои сообщения
Вы не можете удалять свои сообщения
Вы не можете голосовать в опросах
Вы не можете прикреплять файлы к сообщениям
Вы не можете скачивать файлы