Сегодня идет свободное скачивание без начисления Download

Голос. Сезон №4. Выпуск №3 (2015.09.18) HDTV [H.264/1080i]

Ответить на тему
 
Автор
Сообщение

Omen ®

Стаж: 6 лет 2 месяца

Сообщений: 184293

Торрент-статистика

Пост 19-Сен-2015 20:58

[Цитировать]

Голос. Сезон №4. Выпуск №3 (2015.09.18) - Телекомпания: Первый канал HD
Жанр: ТВ-Шоу, развлекательный
Описание:
"Первый канал" объявляет о премьере нового сезона музыкального проекта "Голос". Из тысяч претендентов, приславших минувшим летом свои заявки на участие, отобраны полторы сотни тех, кто поднимется на ставшую уже знаменитой на всю страну сцену во время "слепых прослушиваний" в надежде покорить слух требовательных наставников. Зрителей ждут новые голоса, новые мелодии и новые песни. Музыкальные наставники наберут свои команды, а затем сами же "разберут" их, открывая дорогу вперед лишь лучшим из лучших. В конце концов дальнейшую судьбу участников будут решать уже зрители на прямых эфирах, а в финале сезона страна узнает имя победителя нового "Голоса"!
Ведущий: Дмитрий Нагиев
Жюри: Григорий Лепс, Полина Гагарина, Баста и Александр Градский.
Релиз от: olegka7373
Продолжительность: ~ 01:51:09
Качество видео: HDTV
Видео: AVC, 1920x1080 (16:9), 25.000 fps, 12.6 Mbps (0.243 bit/pixel)
Аудио 1: AC-3, 48.0 KHz, 6 ch, 384 Kbps, CBR (Russian)
Аудио 2: MP2, 48.0 KHz, 2 ch, 192 Kbps, CBR (Russian)

Mediainfo:

Код:
Формат                                   : MPEG-TS
Размер файла                             : 10,7 Гбайт
Продолжительность                        : 1 ч. 51 м.
Режим общего битрейта                    : Переменный
Общий поток                              : 13,8 Мбит/сек
Видео
Идентификатор                            : 4121 (0x1019)
Идентификатор меню                       : 80 (0x50)
Формат                                   : AVC
Формат/Информация                        : Advanced Video Codec
Профиль формата                          : Main@L4
Параметр CABAC формата                   : Да
Параметр ReFrames формата                : 3 кадра
Идентификатор кодека                     : 27
Продолжительность                        : 1 ч. 51 м.
Битрейт                                  : 12,6 Мбит/сек
Ширина                                   : 1920 пикселей
Высота                                   : 1080 пикселей
Соотношение сторон                       : 16:9
Частота кадров                           : 25,000 кадров/сек
Стандарт вещания                         : Component
Цветовое пространство                    : YUV
Субдискретизация насыщенности            : 4:2:0
Битовая глубина                          : 8 бит
Тип развёртки                            : Чересстрочная
Порядок развёртки                        : Верхнее поле первое
Бит/(Пиксели*Кадры)                      : 0.243
Размер потока                            : 9,77 Гбайт (91%)
Цветовой диапазон                        : Limited
Основные цвета                           : BT.709
Характеристики трансфера                 : BT.709
Коэффициенты матрицы                     : BT.709
Аудио #1
Идентификатор                            : 4124 (0x101C)
Идентификатор меню                       : 80 (0x50)
Формат                                   : AC-3
Формат/Информация                        : Audio Coding 3
Расширение режима                        : CM (complete main)
Параметр Endianness формата              : Big
Идентификатор кодека                     : 6
Продолжительность                        : 1 ч. 51 м.
Вид битрейта                             : Постоянный
Битрейт                                  : 384 Кбит/сек
Каналы                                   : 6 каналов
Расположение каналов                     : Front: L C R, Side: L R, LFE
Частота                                  : 48,0 КГц
Битовая глубина                          : 16 бит
Метод сжатия                             : С потерями
Задержка видео                           : -80 мс.
Размер потока                            : 305 Мбайт (3%)
Язык                                     : Russian
Аудио #2
Идентификатор                            : 4125 (0x101D)
Идентификатор меню                       : 80 (0x50)
Формат                                   : MPEG Audio
Версия формата                           : Version 1
Профиль формата                          : Layer 2
Идентификатор кодека                     : 3
Продолжительность                        : 1 ч. 51 м.
Вид битрейта                             : Постоянный
Битрейт                                  : 192 Кбит/сек
Каналы                                   : 2 канала
Частота                                  : 48,0 КГц
Метод сжатия                             : С потерями
Задержка видео                           : -80 мс.
Размер потока                            : 153 Мбайт (1%)
Язык                                     : Russian

Правила Шоу

Шоу "Голос" состоит из шести этапов.
Первым этапом для участников, прошедших предварительный отбор, становятся слепые прослушивания.
Слепые прослушивания
Участники выступают по одному с живым аккомпанементом. Наставники не видят участников, но слышат и оценивают их голоса.
Любой Наставник может взять исполнителя в свою команду. Если участника выбрали несколько Наставников, то он сам выбирает, в чью команду идти.
К концу этапа в каждой из четырех команд окажется по 14 участников.
Поединки
Наставники передают участникам свое мастерство, помогают осваивать сцену, но при этом они должны выбрать лучших. Участники соревнуются между собой в Поединках.
В каждом Поединке двое представителей одной команды исполняют вместе одну песню и в следующий этап проходит лучший по мнению Наставника.
Каждый Наставник может "спасти" двоих участников, вылетевших из команд других Наставников.
Нокауты
Игра на выбывание продолжается. Наставники разбивают свои команды на тройки, где каждый из участников исполняет по одной песне.
Двое по выбору Наставника проходят в следующий этап, а третий покидает проект.
Четвертьфиналы
Конкурсанты в прямом эфире сражаются в тройках с другими участниками своей команды. Каждый исполняет свою песню.
В каждой тройке Наставник распределяет свои 100% голосов между тремя участниками в пропорции 20\30\50.
Зрители при помощи SMS голосуют за того или иного участника.
Проценты от зрительского голосования прибавляются к процентам Наставника, и участник с наибольшим числом голосов проходит в полуфинал.
Таким образом, зрители вместе с Наставником решают, кто останется в проекте.
Полуфинал
У каждого конкурсанта вновь есть лишь одна песня, чтобы доказать свое право остаться в проекте. Наставники и зрители распределяют свои голоса в прямом эфире. Только один участник из каждой команды, выбранный Наставником и получивший наибольшее число голосов зрителей, пройдет дальше.
Финал
В финале сражаются четверо лучших участников проекта. Каждый из них исполняет одну песню соло, другую — дуэтом со своим наставником.
После этого телезрители голосуют за конкурсантов в прямом эфире. Участник, набравший минимальное число голосов, выбывает.
Оставшиеся участники исполняют еще по одной песне, а телезрители через SMS-голосование выбирают победителя проекта.
Скриншоты:
       
Вне форума [Профиль] [ЛС]
Похожие темы
Форум Тема Автор Торрент Отв. Посл. сообщение
./templates/default/images/folder_dl.gif Обучающее видео Наталия Махно | Сексуальный Голос за 21 день (мужской тренинг) (2012) [TXT, MP3, MP4] XP1971
0 | 1

0 | 3449

19

2017-06-11 14:16
XP1971 Последнее
Показать сообщения:    
Ответить на тему

Текущее время: Сегодня 00:37

Часовой пояс: GMT + 3



Вы не можете начинать темы
Вы не можете отвечать на сообщения
Вы не можете редактировать свои сообщения
Вы не можете удалять свои сообщения
Вы не можете голосовать в опросах
Вы не можете прикреплять файлы к сообщениям
Вы не можете скачивать файлы