Сегодня идет свободное скачивание без начисления Download

Главная дорога (29.08.2015) SATRip

Ответить на тему
 
Автор
Сообщение

Omen ®

Стаж: 6 лет 2 месяца

Сообщений: 184293

Торрент-статистика

Пост 29-Авг-2015 13:00

[Цитировать]

Главная дорога (29.08.2015) - Телекомпания: НТВ
Жанр: Телепередача
Ведущие: Денис Юченков, Андрей Федорцов
Описание:
«Главная дорога» — первая на российском телевидении информационная программа обо всем, что происходит на дорогах страны. Это полчаса полезной информации не только для автолюбителей, но и для пешеходов. В постоянной рубрике «Испытано на себе» зрителей ждут наглядные советы, как вести себя в сложных ситуациях на дорогах. Сложнейший курс контраварийной подготовки, адаптированный для массового зрителя, научит водителей уверенно держаться за рулем. Занятия проводит инструктор известного во всем мире Центра высшего водительского мастерства. И в каждом выпуске проекта — моделирование аварийных ситуаций: разбор и рекомендации по предотвращению происшествий, а также советы юристов. В рубрике «$еконд-тест» ведущие программы вместе с автоэкспертами выбирают подержанные автомобили, испытывают их на полигоне и проверяют в сервисе. А в «Федеральной трассе» рассказывается о дорогах нашей страны, их особенностях и достопримечательностях. Показать всю важность соблюдения ПДД и сделать российские дороги безопаснее — цель программы и ее ведущих — актеров Дениса Юченкова и Андрея Федорцова.
Продолжительность: ~ 00:32:26
Качество видео: SATRip
Видео: MPEG4, XviD, 720x448 (1.607), 25.000 fps, 1 800 Kbps (0.223 bit/pixel)
Аудио: MP3, 48.0 KHz, 2 ch, 128 Kbps, CBR

Mediainfo:

Код:
Формат                                   : AVI
Формат/Информация                        : Audio Video Interleave
Размер файла                             : 450 Мбайт
Продолжительность                        : 32 м.
Общий поток                              : 1938 Кбит/сек
Программа кодирования                    : VirtualDubMod 1.5.10.3 | [url=http://www.virtualdub-fr.org]www.virtualdub-fr.org[/url] || (build 2550/release)
Библиотека кодирования                   : VirtualDubMod build 2550/release
Видео
Идентификатор                            : 0
Формат                                   : MPEG-4 Visual
Профиль формата                          : Advanced Simple@L5
Параметр BVOP формата                    : 2
Параметр QPel формата                    : Нет
Параметр GMC формата                     : Без точки перехода
Параметр матрицы формата                 : Default (MPEG)
Идентификатор кодека                     : XVID
Идентификатор кодека/Подсказка           : XviD
Продолжительность                        : 32 м.
Битрейт                                  : 1800 Кбит/сек
Ширина                                   : 720 пикселей
Высота                                   : 400 пикселей
Соотношение сторон                       : 16:9
Частота кадров                           : 25,000 кадров/сек
Цветовое пространство                    : YUV
Субдискретизация насыщенности            : 4:2:0
Битовая глубина                          : 8 бит
Тип развёртки                            : Прогрессивная
Метод сжатия                             : С потерями
Бит/(Пиксели*Кадры)                      : 0.250
Размер потока                            : 418 Мбайт (93%)
Библиотека кодирования                   : XviD 1.2.1 (UTC 2008-12-04)
Аудио
Идентификатор                            : 1
Формат                                   : MPEG Audio
Версия формата                           : Version 1
Профиль формата                          : Layer 3
Идентификатор кодека                     : 55
Идентификатор кодека/Подсказка           : MP3
Продолжительность                        : 32 м.
Вид битрейта                             : Постоянный
Битрейт                                  : 128 Кбит/сек
Каналы                                   : 2 канала
Частота                                  : 48,0 КГц
Метод сжатия                             : С потерями
Размер потока                            : 29,7 Мбайт (7%)
Выравнивание                             : Соединение по промежуткам
Продолжительность промежутка             : 40  мс. (1,00 видеокадр)
Время предзагрузки промежутка            : 504  мс.
Библиотека кодирования                   : LAME3.99r
Настройки программы                      : -m s -V 4 -q 2 -lowpass 17 -b 128

В выпуске:

Опасности нашего двора: водители и дети не могут поделить песочницы, стоянки и пешеходные дорожки. Кто хозяин во дворе?
Статья за пьянство и другие летние сюрпризы для водителей.
Снова в школу: первый урок – на дороге!
Обереги, иконы и святая вода: во что верить водителям?
Скриншоты:        
Вне форума [Профиль] [ЛС]
Показать сообщения:    
Ответить на тему

Текущее время: Сегодня 23:53

Часовой пояс: GMT + 3



Вы не можете начинать темы
Вы не можете отвечать на сообщения
Вы не можете редактировать свои сообщения
Вы не можете удалять свои сообщения
Вы не можете голосовать в опросах
Вы не можете прикреплять файлы к сообщениям
Вы не можете скачивать файлы