Сегодня идет свободное скачивание без начисления Download

Эшелон - Таганка (2002) [FLAC|image+.cue]<Шансон>

Ответить на тему
 
Автор
Сообщение

NarDok ®

Стаж: 7 лет

Сообщений: 924

Торрент-статистика

Пост 10-Авг-2015 23:05

[Цитировать]

Эшелон - Таганка - Год: 2002
Производитель диска: Россия / "Русский Компакт Диск"
Жанр: Шансон
Продолжительность: 01:01:08
Кодек: FLAC
Битрейт: Lossless
Тип рипа: image+.cue
Треклист:
01. Таганка
02. Семь маслин в нагане
03. Бродяга
04. Черная шляпа
05. Семнадцать лет
06. Цыпленок жареный
07. Два громилы
08. Этап на север
09. Это было в парке над рекой
10. Черный ворон
11. Фонарики ночные
12. Москва златоглавая
13. Окурочек
14. Не слышно шума городского
15. Помню, помню я
16. Поспели вишни
17. Постой, паровоз
18. Споем, жиган
19. Чубчик
20. В Кейптаунском порту

Отчёт ЕАС&#58;

Код:
Exact Audio Copy V0.99 prebeta 4 from 23. January 2008
Отчёт EAC об извлечении, выполненном 1. марта 2010, 12:27
гр.ЭШЕЛОН / ТАГАНКА
Дисковод: ASUS    DRW-2014L1   Adapter: 0  ID: 0
Режим чтения                 : Достоверность
Использование точного потока : Да
Отключение кэша аудио        : Да
Использование указателей C2  : Нет
Коррекция смещения при чтении                     : 6
Способность читать области Lead-in и Lead-out     : Нет
Заполнение пропущенных сэмплов тишиной            : Да
Удаление блоков с тишиной в начале и конце        : Нет
При вычислениях CRC использовались нулевые сэмплы : Да
Интерфейс                                         : Установленный внешний ASPI-интерфейс
Выходной формат : Внутренние WAV-операции
Формат сэмплов  : 44.100 Гц; 16 бит; стерео
TOC извлечённого CD
     Трек |   Старт  | Длительность | Начальный сектор | Конечный сектор
    ---------------------------------------------------------------------
       1  |  0:00.00 |    5:03.35   |           0      |      22759
       2  |  5:03.35 |    3:09.61   |       22760      |      36995
       3  |  8:13.21 |    3:35.72   |       36996      |      53192
       4  | 11:49.18 |    2:53.33   |       53193      |      66200
       5  | 14:42.51 |    2:22.00   |       66201      |      76850
       6  | 17:04.51 |    2:54.32   |       76851      |      89932
       7  | 19:59.08 |    3:16.26   |       89933      |     104658
       8  | 23:15.34 |    2:33.71   |      104659      |     116204
       9  | 25:49.30 |    3:31.16   |      116205      |     132045
      10  | 29:20.46 |    4:04.63   |      132046      |     150408
      11  | 33:25.34 |    3:02.11   |      150409      |     164069
      12  | 36:27.45 |    2:25.69   |      164070      |     175013
      13  | 38:53.39 |    3:54.23   |      175014      |     192586
      14  | 42:47.62 |    2:51.41   |      192587      |     205452
      15  | 45:39.28 |    3:11.74   |      205453      |     219851
      16  | 48:51.27 |    2:23.57   |      219852      |     230633
      17  | 51:15.09 |    2:59.30   |      230634      |     244088
      18  | 54:14.39 |    2:12.10   |      244089      |     253998
      19  | 56:26.49 |    2:02.14   |      253999      |     263162
      20  | 58:28.63 |    2:29.31   |      263163      |     274368
Характеристики диапазона извлечения и сообщения об ошибках
Выбранный диапазон
     Имя файла \гр.ЭШЕЛОН - ТАГАНКА\гр.ЭШЕЛОН - ТАГАНКА.wav
     Пиковый уровень 100.0 %
     Качество диапазона 100.0 %
     CRC копии 758B2456
     Копирование... OK
Ошибок не произошло
AccurateRip: сводка
Трек  1  нет в базе данных
Трек  2  нет в базе данных
Трек  3  нет в базе данных
Трек  4  нет в базе данных
Трек  5  нет в базе данных
Трек  6  нет в базе данных
Трек  7  нет в базе данных
Трек  8  нет в базе данных
Трек  9  нет в базе данных
Трек 10  нет в базе данных
Трек 11  нет в базе данных
Трек 12  нет в базе данных
Трек 13  нет в базе данных
Трек 14  нет в базе данных
Трек 15  нет в базе данных
Трек 16  нет в базе данных
Трек 17  нет в базе данных
Трек 18  нет в базе данных
Трек 19  нет в базе данных
Трек 20  нет в базе данных
Ни одного трека нет в базе AccurateRip
Конец отчёта

Отчёт auCDtect Task manager&#58;

Код:
-----------------------
DON'T MODIFY THIS FILE
-----------------------
PERFORMER: auCDtect Task Manager, ver. 1.6.0 RC1 build 1.6.0.1
Copyright (c) 2008-2010 y-soft. All rights reserved
http://y-soft.org
ANALYZER: auCDtect: CD records authenticity detector, version 0.8.2
Copyright (c) 2004 Oleg Berngardt. All rights reserved.
Copyright (c) 2004 Alexander Djourik. All rights reserved.
FILE: гр.ЭШЕЛОН - ТАГАНКА.flac
  Size: 441109137 Hash: 3A67B9BCCE7519A78D9CDDC156B95ABD Accuracy: -m0
  Conclusion: CDDA 100%
  Signature: 9FB79C8D9A0C3544177524E53940953B3808FCDD

Спектрограмма&#58;

 

_________________

Вне форума [Профиль] [ЛС]
Показать сообщения:    
Ответить на тему

Текущее время: Сегодня 22:02

Часовой пояс: GMT + 3



Вы не можете начинать темы
Вы не можете отвечать на сообщения
Вы не можете редактировать свои сообщения
Вы не можете удалять свои сообщения
Вы не можете голосовать в опросах
Вы не можете прикреплять файлы к сообщениям
Вы не можете скачивать файлы