Сегодня идет свободное скачивание без начисления Download

Голос. Дети. Сезон №2. Выпуск №7 (2015.03.27) SATRip

Ответить на тему
 
Автор
Сообщение

NarDok ®

Стаж: 7 лет

Сообщений: 924

Торрент-статистика

Пост 27-Мар-2015 19:57

[Цитировать]

Голос. Дети. Сезон №2. Выпуск №7 - Телекомпания: Первый канал
Жанр: ТВ-Шоу, развлекательный
Описание:
"Голос.Дети" — суперпроект, принципиально отличающийся от привычных вокальных конкурсов и шоу по поиску музыкальных талантов. Мы нашли лучшие детские голоса страны. Незаурядные вокальные данные – это единственный способ попасть в проект "Голос.Дети", получить уникальный шанс пройти через сито музыкальных дуэлей с конкурентами и влюбить в себя миллионы телезрителей.
ПРАВИЛА ШОУ
Шоу "Голос.Дети" состоит из трех этапов.
Первым этапом для участников, прошедших предварительный отбор, становятся Слепые прослушивания.
Слепые прослушивания:
Участники выступают по одному с живым аккомпанементом. Наставники не видят участников, но слышат и оценивают их голоса.
Любой Наставник может взять исполнителя в свою команду. Если участника выбрали несколько Наставников, то он сам решает, в чью команду идти.
К концу этапа в каждой из трех команд окажется по 15 участников.
Поединки:
Наставники передают участникам свое мастерство, помогают осваивать сцену, но при этом они должны выбрать лучших. Участники соревнуются между собой в ПОЕДИНКАХ.
В каждом ПОЕДИНКЕ трое представителей одной команды исполняют одну песню и Наставник выбирает лучшего участника в каждой тройке.
Пятеро отобранных счастливчиков исполняют еще по одной песне, после чего Наставник выбирает двух конкурсантов, которые проходят в ФИНАЛ.
Финал:
В ФИНАЛЕ сражаются шестеро лучших участников проекта — по двое из каждой команды.
Каждый из участников исполняет одну песню соло, другую — вместе со своим товарищем по команде и Наставником.
Телезрители голосуют за конкурсантов в прямом эфире и выбирают из каждой двойки лучшего вокалиста.
Оставшиеся участники исполняют еще по одной песне, а телезрители SMS-голосованием выбирают победителя проекта.
Ведущий: Дмитрий Нагиев и Анастасия Чеважевская
Продолжительность: ~ 01:36:49
Видеокодек: Xvid
Битрейт видео: ~1800 kb/s
Размер кадра: 704 x 448
Качество видео: SATRip
Аудиокодек: AC-3, 2ch.
Битрейт аудио: 192 kb/s

Mediainfo:

Код:
Формат                                   : AVI
Формат/Информация                        : Audio Video Interleave
Размер файла                             : 1,35 Гбайт
Продолжительность                        : 1 ч. 36 м.
Общий поток                              : 2001 Кбит/сек
Программа кодирования                    : VirtualDubMod 1.5.10.3 | [url=http://www.virtualdub-fr.org]www.virtualdub-fr.org[/url] || (build 2550/release)
Библиотека кодирования                   : VirtualDubMod build 2550/release
Видео
Идентификатор                            : 0
Формат                                   : MPEG-4 Visual
Профиль формата                          : Advanced Simple@L5
Параметр BVOP формата                    : 2
Параметр QPel формата                    : Нет
Параметр GMC формата                     : Без точки перехода
Параметр матрицы формата                 : Default (H.263)
Идентификатор кодека                     : XVID
Идентификатор кодека/Подсказка           : XviD
Продолжительность                        : 1 ч. 36 м.
Битрейт                                  : 1799 Кбит/сек
Ширина                                   : 704 пикселя
Высота                                   : 448 пикселей
Соотношение сторон                       : 16:10
Частота кадров                           : 25,000 кадров/сек
Цветовое пространство                    : YUV
Субдискретизация насыщенности            : 4:2:0
Битовая глубина                          : 8 бит
Тип развёртки                            : Прогрессивная
Метод сжатия                             : С потерями
Бит/(Пиксели*Кадры)                      : 0.228
Размер потока                            : 1,22 Гбайт (90%)
Библиотека кодирования                   : XviD 1.2.1 (UTC 2008-12-04)
Аудио
Идентификатор                            : 1
Формат                                   : AC-3
Формат/Информация                        : Audio Coding 3
Расширение режима                        : CM (complete main)
Параметр Endianness формата              : Big
Идентификатор кодека                     : 2000
Продолжительность                        : 1 ч. 36 м.
Вид битрейта                             : Постоянный
Битрейт                                  : 192 Кбит/сек
Каналы                                   : 2 канала
Расположение каналов                     : Front: L R
Частота                                  : 48,0 КГц
Битовая глубина                          : 16 бит
Метод сжатия                             : С потерями
Размер потока                            : 133 Мбайт (10%)
Выравнивание                             : Разделение по промежуткам
Продолжительность промежутка             : 40  мс. (1,00 видеокадр)
Время предзагрузки промежутка            : 500  мс.
Скриншоты:        

_________________

Вне форума [Профиль] [ЛС]
Похожие темы
Форум Тема Автор Торрент Отв. Посл. сообщение
./templates/default/images/folder_dl.gif Обучающее видео Наталия Махно | Сексуальный Голос за 21 день (мужской тренинг) (2012) [TXT, MP3, MP4] XP1971
0 | 1

0 | 3449

19

2017-06-11 14:16
XP1971 Последнее
Показать сообщения:    
Ответить на тему

Текущее время: Сегодня 00:18

Часовой пояс: GMT + 3



Вы не можете начинать темы
Вы не можете отвечать на сообщения
Вы не можете редактировать свои сообщения
Вы не можете удалять свои сообщения
Вы не можете голосовать в опросах
Вы не можете прикреплять файлы к сообщениям
Вы не можете скачивать файлы