Сегодня идет свободное скачивание без начисления Download

(Neoclassical/Progressive Power Metal) [CD] Kenziner - Дискография: 1998-2014, FLAC (image+.cue), lossless

Ответить на тему
 
Автор
Сообщение

Omen ®

Стаж: 6 лет 2 месяца

Сообщений: 184293

Торрент-статистика

Пост 26-Фев-2015 06:00

[Цитировать]


Kenziner - Дискография

Жанр: Neoclassical/Progressive Power Metal Носитель: CD Год издания: 1998-2014
Страна исполнителя (группы): Finland Продолжительность: 03:01:11
Аудиокодек: FLAC (*.flac) Тип рипа: image+.cue Битрейт аудио: lossless
Источник: CD собственной коллекции Наличие сканов: Да (Complete 600 DPI)
-

1998 - Timescape (Japanese Edition) [Teichiku Records Co., Ltd., TECW-25795] (01:05:04)


01. Future Signs 05:42
02. Into the Light 04:13
03. Images of the Past 05:47
04. Dreamer 06:18
05. Thru the End 04:50
06. Timescape 07:52
07. Walking in the Rain 07:08
08. Seasons 07:29
09. In the Silence 05:18
10. Land of Shadows 07:36
Jarno Keskinen - Bass, Guitars, Keyboards
Stephen Fredrick - Vocals
Dennis Lesh - Drums
David T. Chastain - Producer
Ryan Adkins - Mixing
Steven Taylor - Artwork

Лог создания рипа

Exact Audio Copy V1.0 beta 3 from 29. August 2011
EAC extraction logfile from 22. February 2015, 11:52
Kenziner / Timescape
Used drive : ATAPI iHAS122 W Adapter: 2 ID: 0
Read mode : SecureUtilize accurate stream : YesDefeat audio cache : YesMake use of C2 pointers : No
Read offset correction : 48Overread into Lead-In and Lead-Out : NoFill up missing offset samples with silence : YesDelete leading and trailing silent blocks : NoNull samples used in CRC calculations : YesUsed interface : Installed external ASPI interface
Used output format : User Defined EncoderSelected bitrate : 1024 kBit/sQuality : HighAdd ID3 tag : NoCommand line compressor : C:\Program Files\FLAC\flac.exeAdditional command line options : -V -8 -T "Date=%year%" -T "Genre=%genre%" -T"COMMENT=Ripped by Ilijan" -8 -V %source%
TOC of the extracted CD
Track | Start | Length | Start sector | End sector --------------------------------------------------------- 1 | 0:00.00 | 5:38.72 | 0 | 25421 2 | 5:38.72 | 4:13.05 | 25422 | 44401 3 | 9:52.02 | 5:47.73 | 44402 | 70499 4 | 15:40.00 | 6:18.02 | 70500 | 98851 5 | 21:58.02 | 4:50.13 | 98852 | 120614 6 | 26:48.15 | 7:52.25 | 120615 | 156039 7 | 34:40.40 | 7:08.27 | 156040 | 188166 8 | 41:48.67 | 7:29.13 | 188167 | 221854 9 | 49:18.05 | 5:18.12 | 221855 | 245716 10 | 54:36.17 | 7:36.38 | 245717 | 279954 11 | 62:12.55 | 2:51.52 | 279955 | 292831
Range status and errors
Selected range
Filename D:\ИЛИЯН\Kenziner - Timescape.wav
Peak level 100.0 % Extraction speed 4.1 X Range quality 100.0 % Test CRC BFE40B64 Copy CRC BFE40B64 Copy OK
No errors occurred
AccurateRip summary
Track 1 accurately ripped (confidence 1) [118580B4] (AR v2)Track 2 accurately ripped (confidence 1) [CC0BED95] (AR v2)Track 3 accurately ripped (confidence 1) [03214408] (AR v2)Track 4 accurately ripped (confidence 1) [DC01F0B9] (AR v2)Track 5 accurately ripped (confidence 1) [0969E172] (AR v2)Track 6 accurately ripped (confidence 1) [C37593EE] (AR v2)Track 7 accurately ripped (confidence 1) [20F5A936] (AR v2)Track 8 accurately ripped (confidence 1) [B7911CF5] (AR v2)Track 9 accurately ripped (confidence 1) [389852D6] (AR v2)Track 10 accurately ripped (confidence 1) [55C24C5C] (AR v2)Track 11 accurately ripped (confidence 1) [0E5A090A] (AR v2)
All tracks accurately ripped
End of status report
---- CUETools DB Plugin V2.1.3
[CTDB TOCID: 9eR3MKN7q6NW.bQrdjfKXapflXc-] disk not present in database, Submit result: 9eR3MKN7q6NW.bQrdjfKXapflXc- has been uploaded
==== Log checksum 2AEBC731824D0658627266C996A499D162A9E270BBD26D11F012574F3ADD594D ====

1999 - The Prophecies (Original Recording) [Limb Music GmbH LMP 9911-014 CD] (01:01:17)


01. Live Forever 05:56
02. The Razor's Edge 04:37
03. Through the Fire 06:07
04. Trail of Tears 05:35
05. Race with Time 05:34
06. Eternity 06:16
07. Dimensions 04:42
08. Like a Paradise 06:57
09. Lost in a Fantasy 05:02 *
10. The Prophecies 10:07
* - European edition on Limb Music bonus track.
Stephen Fredrick - Vocals
Mikko Härkin - Keyboards
Jarno Keskinen - Guitars, Bass, Keyboards
Brian Harris - Drums
David Shew - Mastering
Rainer Kalwitz - Cover art
David T. Chastain - Producer

Лог создания рипа

Exact Audio Copy V1.0 beta 3 from 29. August 2011
EAC extraction logfile from 22. February 2015, 10:46
KenZiner / The Prophecies
Used drive : ATAPI iHAS122 W Adapter: 2 ID: 0
Read mode : SecureUtilize accurate stream : YesDefeat audio cache : YesMake use of C2 pointers : No
Read offset correction : 48Overread into Lead-In and Lead-Out : NoFill up missing offset samples with silence : YesDelete leading and trailing silent blocks : NoNull samples used in CRC calculations : YesUsed interface : Installed external ASPI interface
Used output format : User Defined EncoderSelected bitrate : 1024 kBit/sQuality : HighAdd ID3 tag : NoCommand line compressor : C:\Program Files\FLAC\flac.exeAdditional command line options : -V -8 -T "Date=%year%" -T "Genre=%genre%" -T"COMMENT=Ripped by Ilijan" -8 -V %source%
TOC of the extracted CD
Track | Start | Length | Start sector | End sector --------------------------------------------------------- 1 | 0:00.00 | 5:58.66 | 0 | 26915 2 | 5:58.66 | 4:39.47 | 26916 | 47887 3 | 10:38.38 | 6:09.53 | 47888 | 75615 4 | 16:48.16 | 5:37.26 | 75616 | 100916 5 | 22:25.42 | 5:36.04 | 100917 | 126120 6 | 28:01.46 | 6:18.57 | 126121 | 154527 7 | 34:20.28 | 4:44.05 | 154528 | 175832 8 | 39:04.33 | 6:59.61 | 175833 | 207318 9 | 46:04.19 | 5:04.68 | 207319 | 230186 10 | 51:09.12 | 10:07.64 | 230187 | 275775
Range status and errors
Selected range
Filename D:\ИЛИЯН\KenZiner - The Prophecies.wav
Peak level 100.0 % Extraction speed 3.3 X Range quality 100.0 % Test CRC FBD1C283 Copy CRC FBD1C283 Copy OK
No errors occurred
AccurateRip summary
Track 1 accurately ripped (confidence 6) [A33E5867] (AR v2)Track 2 accurately ripped (confidence 6) [5BF2170D] (AR v2)Track 3 accurately ripped (confidence 6) [06BAF268] (AR v2)Track 4 accurately ripped (confidence 6) [21C632FE] (AR v2)Track 5 accurately ripped (confidence 6) [1B07767B] (AR v2)Track 6 accurately ripped (confidence 6) [B5351DEC] (AR v2)Track 7 accurately ripped (confidence 6) [CD2B08C0] (AR v2)Track 8 accurately ripped (confidence 6) [322BDD81] (AR v2)Track 9 accurately ripped (confidence 6) [6C83EED9] (AR v2)Track 10 accurately ripped (confidence 6) [DB14994B] (AR v2)
All tracks accurately ripped
End of status report
---- CUETools DB Plugin V2.1.3
[CTDB TOCID: RfRwVwxhqeNsLdwrQSN7B0pGhtk-] found, Submit result: RfRwVwxhqeNsLdwrQSN7B0pGhtk- has been confirmed[bb57d294] (18/18) Accurately ripped
==== Log checksum 5F51397EFF2244B7870AB67CBCB5A4E3B39DF55BA3278FF49F748909CE6492E3 ====

2014 - The Last Horizon (Original Recording) [Power Prog Records N/A] (00:54:50)


01. Run for Your Life 03:37
02. Our Times 05:31
03. Heroes Ride 04:35
04. Devour the World 05:35
05. End of an Era 05:58
06. Keep the Flame Alive 04:33
07. I Am Eternal 07:23
08. No Turning Back 04:20
09. The Last Horizon 08:13
10. Perfect Moments 05:21
Jarno Keskinen - Guitars
Make Lievonen - Drums
Markku Kuikka - Vocals
Jukka Karinen - Keyboards
JJ Hjelt - Bass
Jarno Keskinen - Lyrics, Producer
Jani Autero - Recording (drums)
Götz Morgenschweis - Artwork
Svante Forsbäck - Mastering
Nino Laurenne - Mixing
Jukka Karinen - Lyrics

Лог создания рипа

Exact Audio Copy V1.0 beta 3 from 29. August 2011
EAC extraction logfile from 22. February 2015, 11:16
KenZiner / The Last Horizon
Used drive : ATAPI iHAS122 W Adapter: 2 ID: 0
Read mode : SecureUtilize accurate stream : YesDefeat audio cache : YesMake use of C2 pointers : No
Read offset correction : 48Overread into Lead-In and Lead-Out : NoFill up missing offset samples with silence : YesDelete leading and trailing silent blocks : NoNull samples used in CRC calculations : YesUsed interface : Installed external ASPI interface
Used output format : User Defined EncoderSelected bitrate : 1024 kBit/sQuality : HighAdd ID3 tag : NoCommand line compressor : C:\Program Files\FLAC\flac.exeAdditional command line options : -V -8 -T "Date=%year%" -T "Genre=%genre%" -T"COMMENT=Ripped by Ilijan" -8 -V %source%
TOC of the extracted CD
Track | Start | Length | Start sector | End sector --------------------------------------------------------- 1 | 0:00.00 | 3:35.37 | 0 | 16161 2 | 3:35.37 | 5:30.06 | 16162 | 40917 3 | 9:05.43 | 4:33.43 | 40918 | 61435 4 | 13:39.11 | 5:34.72 | 61436 | 86557 5 | 19:14.08 | 5:55.47 | 86558 | 113229 6 | 25:09.55 | 4:30.61 | 113230 | 133540 7 | 29:40.41 | 7:21.53 | 133541 | 166668 8 | 37:02.19 | 4:19.32 | 166669 | 186125 9 | 41:21.51 | 8:12.46 | 186126 | 223071 10 | 49:34.22 | 5:15.52 | 223072 | 246748
Range status and errors
Selected range
Filename D:\ИЛИЯН\KenZiner - The Last Horizon.wav
Peak level 100.0 % Extraction speed 4.0 X Range quality 100.0 % Test CRC F0F0A119 Copy CRC F0F0A119 Copy OK
No errors occurred
AccurateRip summary
Track 1 accurately ripped (confidence 3) [ADE6EE53] (AR v2)Track 2 accurately ripped (confidence 3) [67F772D9] (AR v2)Track 3 accurately ripped (confidence 3) [7BDAA700] (AR v2)Track 4 accurately ripped (confidence 3) [6AA48D2B] (AR v2)Track 5 accurately ripped (confidence 3) [4E3CE2FF] (AR v2)Track 6 accurately ripped (confidence 3) [8FA7803F] (AR v2)Track 7 accurately ripped (confidence 3) [45428B90] (AR v2)Track 8 accurately ripped (confidence 3) [179FFBE8] (AR v2)Track 9 accurately ripped (confidence 3) [1BDBFEFD] (AR v2)Track 10 accurately ripped (confidence 3) [86708A5D] (AR v2)
All tracks accurately ripped
End of status report
---- CUETools DB Plugin V2.1.3
[CTDB TOCID: TCee573jcP5qk.O3ZYiEE0gQHEU-] found, Submit result: already submitted[269e33da] (5/5) Accurately ripped
==== Log checksum 4769776FCD0BAD12BA5EE40E35FF13A73E0FAAFB765AFCB11EFE4ACE560BD289 ====
-
Вне форума [Профиль] [ЛС]

Dracula

Стаж: 5 лет 3 месяца

Сообщений: 12441

Торрент-статистика

Пост 26-Фев-2015 10:35 (спустя 4 часа)

Топик был перенесен из форума Metal в форум Metal


RUGUI
 
Показать сообщения:    
Ответить на тему

Текущее время: Сегодня 11:31

Часовой пояс: GMT + 3



Вы не можете начинать темы
Вы не можете отвечать на сообщения
Вы не можете редактировать свои сообщения
Вы не можете удалять свои сообщения
Вы не можете голосовать в опросах
Вы не можете прикреплять файлы к сообщениям
Вы не можете скачивать файлы